<?xml version="1.0" standalone="no"?>
<!DOCTYPE svg PUBLIC "-//W3C//DTD SVG 1.1//EN" "http://www.w3.org/Graphics/SVG/1.1/DTD/svg11.dtd" >
<svg xmlns="http://www.w3.org/2000/svg">
<metadata>Generated by IcoMoon</metadata>
<defs>
<font id="fuse-iconfont" horiz-adv-x="1024">
<font-face units-per-em="1024" ascent="860.16" descent="-163.84" />
<missing-glyph horiz-adv-x="1024" />
<glyph unicode="&#x20;" horiz-adv-x="0" d="" />
<glyph unicode="&#xe900;" glyph-name="access-point-network" d="M210.5 728.166c-77.274-77.274-125.167-183.932-125.167-301.5s47.892-224.226 125.167-301.5l59.917 59.917c-61.706 61.705-99.75 147.072-99.75 241.583 0 94.507 38.044 179.878 99.75 241.583l-59.917 59.917zM813.5 728.166l-59.917-59.917c61.705-61.705 99.75-147.076 99.75-241.583 0-94.511-38.046-179.878-99.75-241.583l59.917-59.917c77.274 77.274 125.167 183.932 125.167 301.5s-47.893 224.226-125.167 301.5zM331.167 607.5c-46.39-46.391-75.167-110.396-75.167-180.834 0-70.443 28.777-134.443 75.167-180.834l60 60.002c-30.822 30.818-49.833 73.451-49.833 120.832s19.012 90.014 49.833 120.832l-60 60.002zM692.834 607.5l-60.002-60.002c30.822-30.818 49.835-73.451 49.835-120.832s-19.012-90.014-49.835-120.832l60.002-60.002c46.387 46.391 75.166 110.391 75.166 180.834 0 70.438-28.779 134.443-75.166 180.834zM512 512c-47.13 0-85.333-38.204-85.333-85.333s38.204-85.333 85.333-85.333c47.13 0 85.333 38.204 85.333 85.333s-38.204 85.333-85.333 85.333zM469.333 256v-170.667h-42.667c-23.564 0-42.667-19.102-42.667-42.667h-298.667v-85.333h298.667c0-23.565 19.103-42.667 42.667-42.667h170.667c23.565 0 42.667 19.102 42.667 42.667h298.667v85.333h-298.667c0 23.565-19.102 42.667-42.667 42.667h-42.667v170.667h-85.333z" />
<glyph unicode="&#xe901;" glyph-name="access-point" d="M210.5 642.833c-77.274-77.274-125.167-183.932-125.167-301.5s47.892-224.226 125.167-301.5l59.917 59.917c-61.706 61.705-99.75 147.072-99.75 241.583 0 94.5 38.044 179.878 99.75 241.583l-59.917 59.917zM813.5 642.833l-59.917-59.917c61.705-61.705 99.75-147.083 99.75-241.583 0-94.511-38.046-179.878-99.75-241.583l59.917-59.917c77.274 77.274 125.167 183.932 125.167 301.5s-47.893 224.226-125.167 301.5zM331.167 522.167c-46.39-46.391-75.167-110.396-75.167-180.834 0-70.443 28.777-134.443 75.167-180.834l60 60.002c-30.822 30.818-49.833 73.451-49.833 120.832s19.012 90.014 49.833 120.832l-60 60.002zM692.834 522.167l-60.002-60.002c30.822-30.818 49.835-73.451 49.835-120.832s-19.012-90.014-49.835-120.832l60.002-60.002c46.387 46.391 75.166 110.391 75.166 180.834 0 70.438-28.779 134.443-75.166 180.834zM512 426.666c-47.13 0-85.333-38.204-85.333-85.333s38.204-85.333 85.333-85.333c47.13 0 85.333 38.204 85.333 85.333s-38.204 85.333-85.333 85.333z" />
<glyph unicode="&#xe902;" glyph-name="account-alert" d="M426.667 682.666c94.255 0 170.667-76.41 170.667-170.667 0-94.255-76.412-170.667-170.667-170.667-94.257 0-170.667 76.412-170.667 170.667 0 94.257 76.41 170.667 170.667 170.667zM426.667 256c188.514 0 341.333-76.412 341.333-170.667v-85.333h-682.667v85.333c0 94.255 152.82 170.667 341.333 170.667zM853.333 341.333v213.333h85.333v-213.333h-85.333zM853.333 170.666v85.333h85.333v-85.333h-85.333z" />
<glyph unicode="&#xe903;" glyph-name="account-box-outline" d="M810.637 42.747l-597.333-0.043v597.377h597.333zM810.637 725.415h-597.333c-47.104 0-85.333-38.229-85.333-85.333v-597.335c0-47.147 38.229-85.333 85.333-85.333h597.333c47.104 0 85.333 38.187 85.333 85.333v597.335c0 47.104-38.229 85.333-85.333 85.333zM703.97 160.081c0 64-128 96-192 96s-192-32-192-96v-32h384zM511.97 330.747c52.992 0 96 42.923 96 96.001 0 52.992-43.008 96-96 96s-96.001-43.008-96.001-96c0-53.079 43.009-96.001 96.001-96.001z" />
<glyph unicode="&#xe904;" glyph-name="account-box" d="M255.974 128c0 85.333 170.667 132.267 256 132.267s256-46.933 256-132.267v-42.667h-512zM639.974 469.333c0-70.741-57.344-128-128-128s-128 57.259-128 128c0 70.656 57.344 128 128 128s128-57.344 128-128zM127.974 640v-597.333c0-47.104 38.144-85.333 85.333-85.333h597.333c47.083 0 85.333 38.229 85.333 85.333v597.333c0 47.104-38.251 85.333-85.333 85.333h-597.333c-47.189 0-85.333-38.229-85.333-85.333z" />
<glyph unicode="&#xe905;" glyph-name="account-card-details" d="M85.333 725.333h853.333c44.681 0 85.333-40.653 85.333-85.333v-597.333c0-44.681-40.653-85.333-85.333-85.333h-853.333c-44.68 0-85.333 40.653-85.333 85.333v597.333c0 44.681 40.653 85.333 85.333 85.333zM597.333 597.333v-42.667h341.333v42.667h-341.333zM597.333 512v-42.667h341.333v42.667h-341.333zM597.333 426.666v-42.667h298.667v42.667h-298.667zM341.333 260.002c-85.333 0-256-46.669-256-132.002v-42.667h512v42.667c0 85.333-170.667 132.002-256 132.002zM341.333 597.333c-70.692 0-128-57.308-128-128 0-70.694 57.307-128 128-128s128 57.306 128 128c0 70.692-57.308 128-128 128z" />
<glyph unicode="&#xe906;" glyph-name="account-check" d="M384 640c82.475 0 149.333-66.859 149.333-149.333s-66.859-149.333-149.333-149.333c-82.474 0-149.333 66.859-149.333 149.333s66.859 149.333 149.333 149.333zM384 266.666c164.949 0 298.667-66.859 298.667-149.333v-74.667h-597.333v74.667c0 82.475 133.718 149.333 298.667 149.333zM725.333 312.994l-117.333 128 49.673 49.673 67.661-67.661 152.994 152.994 49.673-60.34-202.667-202.666z" />
<glyph unicode="&#xe907;" glyph-name="account-circle" d="M511.966 34.21c-106.837 0-200.832 54.566-255.915 137.382 1.109 84.779 170.837 131.413 255.915 131.413s254.805-46.635 255.915-131.413c-55.083-82.816-149.077-137.382-255.915-137.382zM511.966 640.075c70.656 0 128-57.344 128-128 0-70.742-57.344-127.999-128-127.999s-128 57.257-128 127.999c0 70.656 57.344 128 128 128zM511.966 768.075c-235.648 0-426.667-190.976-426.667-426.665 0-235.648 191.019-426.667 426.667-426.667s426.667 191.019 426.667 426.667c0 235.689-191.019 426.665-426.667 426.665z" />
<glyph unicode="&#xe908;" glyph-name="account-convert" d="M320.853-63.147l56.747 56.32 162.56-162.56-28.16-1.28c-268.373 0-488.107 206.507-509.867 469.333h64c15.36-160.427 115.2-296.107 254.72-361.813zM703.147 745.813l-56.747-56.313-162.56 162.553 28.16 1.28c268.373 0 488.107-206.5 509.867-469.333h-64c-15.369 160.416-115.2 295.68-254.72 361.813zM256 128c0 85.333 170.667 132.271 256 132.271s256-46.938 256-132.271v-42.667h-512v42.667zM640 469.331c0-70.744-57.344-127.998-128-127.998s-128 57.254-128 127.998c0 70.656 57.344 128 128 128s128-57.344 128-128z" />
<glyph unicode="&#xe909;" glyph-name="account-edit" d="M925.867 283.733l-42.667-42.667-87.467 87.467 42.667 42.667c9.126 8.943 23.727 8.943 32.853 0l54.613-54.613c8.943-9.126 8.943-23.727 0-32.853zM512 45.226l258.56 258.56 87.467-87.467-258.133-258.987h-87.893v87.893zM512 256c-188.587 0-341.333-76.373-341.333-170.667v-85.333h256v80.64l170.667 170.667c-28.297 3.58-56.815 5.146-85.333 4.693zM512 682.666c-94.257 0-170.667-76.412-170.667-170.667s76.41-170.667 170.667-170.667c94.255 0 170.667 76.412 170.667 170.667s-76.412 170.667-170.667 170.667z" />
<glyph unicode="&#xe90a;" glyph-name="account-key" d="M469.333 426.666v-85.333h-42.667v-85.333h-85.333v85.333h-92.617c-17.572-49.715-64.984-85.333-120.716-85.333-70.692 0-128 57.306-128 128 0 70.692 57.307 128 128 128 55.732 0 103.145-35.619 120.716-85.333h220.617zM128 426.666c-23.564 0-42.667-19.102-42.667-42.667s19.102-42.667 42.667-42.667c23.564 0 42.667 19.102 42.667 42.667s-19.103 42.667-42.667 42.667zM682.667 256c113.792 0 341.333-56.96 341.333-170.667v-85.333h-682.667v85.333c0 113.707 227.541 170.667 341.333 170.667zM682.667 341.333c-94.208 0-170.667 76.501-170.667 170.667 0 94.208 76.459 170.667 170.667 170.667s170.667-76.459 170.667-170.667c0-94.165-76.459-170.667-170.667-170.667z" />
<glyph unicode="&#xe90b;" glyph-name="account-location" d="M767.97 170.747h-512v38.4c0 85.376 170.624 132.267 256 132.267 85.333 0 256-46.891 256-132.267zM511.97 627.282c63.616 0 115.2-51.584 115.2-115.2 0-63.659-51.584-115.201-115.2-115.201s-115.2 51.543-115.2 115.201c0 63.616 51.584 115.2 115.2 115.2zM810.637 768.082h-597.333c-47.147 0-85.333-38.187-85.333-85.333v-597.335c0-47.147 38.186-85.333 85.333-85.333h170.667l128-128 128 128h170.667c47.061 0 85.333 38.187 85.333 85.333v597.335c0 47.147-38.272 85.333-85.333 85.333z" />
<glyph unicode="&#xe90c;" glyph-name="account-minus" d="M639.974 256.085c-113.792 0-341.334-56.96-341.334-170.667v-85.333h682.667v85.333c0 113.707-227.541 170.667-341.333 170.667zM42.641 426.753v-85.335h341.333v85.335zM639.974 341.418c94.208 0 170.667 76.501 170.667 170.668 0 94.208-76.459 170.667-170.667 170.667s-170.667-76.459-170.667-170.667c0-94.167 76.459-170.668 170.667-170.668z" />
<glyph unicode="&#xe90d;" glyph-name="account-multiple-minus" d="M554.654 298.747c-85.333 0-256-42.709-256-128v-85.333h512v85.333c0 85.291-170.667 128-256 128zM837.15 291.916c35.371-30.929 58.837-70.737 58.837-121.169v-85.333h128v85.333c0 65.749-101.291 106.086-186.837 121.169zM554.654 384.081c70.699 0 127.573 57.345 127.573 128.001s-56.875 128-127.573 128c-70.699 0-128-57.344-128-128s57.301-128.001 128-128.001zM767.987 384.081c70.699 0 127.573 57.345 127.573 128.001s-56.875 128-127.573 128c-13.611 0-26.709-2.176-39.040-6.144 24.192-34.603 38.613-76.501 38.613-121.856s-14.421-87.255-38.613-121.857c12.331-3.968 25.429-6.144 39.040-6.144zM341.321 426.749h-341.333v-85.335h341.333v85.335z" />
<glyph unicode="&#xe90e;" glyph-name="account-multiple-outline" d="M704 576c46.933 0 85.333-38.4 85.333-85.333s-38.4-85.333-85.333-85.333c-46.933 0-85.333 38.4-85.333 85.333s38.4 85.333 85.333 85.333zM704 341.333c82.347 0 149.333 66.987 149.333 149.333s-66.987 149.333-149.333 149.333c-82.347 0-149.333-66.987-149.333-149.333s66.987-149.333 149.333-149.333zM320 576c46.933 0 85.333-38.4 85.333-85.333s-38.4-85.333-85.333-85.333c-46.933 0-85.333 38.4-85.333 85.333s38.4 85.333 85.333 85.333zM320 341.333c82.347 0 149.333 66.987 149.333 149.333s-66.987 149.333-149.333 149.333c-82.347 0-149.333-66.987-149.333-149.333s66.987-149.333 149.333-149.333zM917.333 106.666h-320v53.333c0 19.627-8.533 36.693-22.187 52.053 37.547 12.8 83.627 22.613 128.853 22.613 104.107 0 213.333-51.627 213.333-74.667zM533.333 106.666h-426.667v53.333c0 23.040 109.227 74.667 213.333 74.667s213.333-51.627 213.333-74.667zM704 298.666c-51.2 0-130.987-14.507-192-42.667-61.013 28.587-140.8 42.667-192 42.667-92.587 0-277.333-46.080-277.333-138.667v-117.333h938.667v117.333c0 92.587-184.747 138.667-277.333 138.667z" />
<glyph unicode="&#xe90f;" glyph-name="account-multiple-plus" d="M554.654 298.747c-85.333 0-256-42.709-256-128v-85.333h512v85.333c0 85.291-170.667 128-256 128zM837.15 291.916c35.371-30.929 58.837-70.737 58.837-121.169v-85.333h128v85.333c0 65.749-101.291 106.086-186.837 121.169zM554.654 384.081c70.699 0 127.573 57.345 127.573 128.001s-56.875 128-127.573 128c-70.699 0-128-57.344-128-128s57.301-128.001 128-128.001zM767.987 384.081c70.699 0 127.573 57.345 127.573 128.001s-56.875 128-127.573 128c-13.611 0-26.709-2.176-39.040-6.144 24.192-34.603 38.613-76.501 38.613-121.856s-14.421-87.255-38.613-121.857c12.331-3.968 25.429-6.144 39.040-6.144zM341.321 426.749h-128v128h-85.333v-128h-128v-85.335h128v-128h85.333v128h128v85.335z" />
<glyph unicode="&#xe910;" glyph-name="account-multiple" d="M682.641 298.747c-12.373 0-26.325-0.768-41.173-2.304 49.451-35.712 83.84-83.755 83.84-147.029v-106.667h256v106.667c0 99.499-199.125 149.333-298.667 149.333zM341.307 298.747c-99.585 0-298.667-49.835-298.667-149.333v-106.667h597.334v106.667c0 99.499-199.125 149.333-298.667 149.333zM341.307 384.081c70.699 0 127.574 57.345 127.574 128.001s-56.875 128-127.574 128c-70.699 0-128-57.344-128-128s57.301-128.001 128-128.001zM682.641 384.081c70.699 0 127.573 57.345 127.573 128.001s-56.875 128-127.573 128c-70.699 0-128-57.344-128-128s57.301-128.001 128-128.001z" />
<glyph unicode="&#xe911;" glyph-name="account-network" d="M554.667 170.666v-85.333h42.667c23.565 0 42.667-19.102 42.667-42.667h298.667v-85.333h-298.667c0-23.565-19.102-42.667-42.667-42.667h-170.667c-23.564 0-42.666 19.102-42.666 42.667h-298.667v85.333h298.667c0 23.565 19.102 42.667 42.666 42.667h42.667v85.333h-256v64c0 82.475 133.718 149.333 298.667 149.333s298.667-66.859 298.667-149.333v-64h-256zM512 768c82.475 0 149.333-66.859 149.333-149.333s-66.859-149.333-149.333-149.333c-82.475 0-149.333 66.859-149.333 149.333s66.859 149.333 149.333 149.333z" />
<glyph unicode="&#xe912;" glyph-name="account-off" d="M512 682.666c94.255 0 170.667-76.41 170.667-170.667 0-83.282-59.652-152.631-138.56-167.65l-199.753 199.782c15.031 78.896 84.374 138.535 167.646 138.535zM523.942 255.897l329.391-329.391-54.187-54.613-128.060 128.107h-500.42v85.333c0 78.549 106.132 144.704 250.609 164.574l-302.622 302.733 54.273 54.273 351.016-351.016zM853.333 85.333v-50.261l-207.215 207.249c121.839-26.057 207.215-86.537 207.215-156.988z" />
<glyph unicode="&#xe913;" glyph-name="account-outline" d="M511.974 298.747c-113.792 0-341.334-56.96-341.334-170.667v-128h682.667v128c0 113.707-227.541 170.667-341.333 170.667zM511.974 682.749c-94.209 0-170.667-76.458-170.667-170.667 0-94.167 76.458-170.668 170.667-170.668s170.667 76.501 170.667 170.668c0 94.208-76.459 170.667-170.667 170.667zM511.974 217.681c126.891 0 260.267-62.165 260.267-89.6v-46.933h-520.534v46.933c0 27.435 133.376 89.6 260.268 89.6zM511.974 601.682c49.408 0 89.6-40.192 89.6-89.6s-40.192-89.601-89.6-89.601c-49.408 0-89.601 40.193-89.601 89.601s40.193 89.6 89.601 89.6z" />
<glyph unicode="&#xe914;" glyph-name="account-plus" d="M639.974 256.085c-113.792 0-341.334-56.96-341.334-170.667v-85.333h682.667v85.333c0 113.707-227.541 170.667-341.333 170.667zM255.974 426.753v128h-85.333v-128h-128v-85.335h128v-128h85.333v128h128v85.335zM639.974 341.418c94.208 0 170.667 76.501 170.667 170.668 0 94.208-76.459 170.667-170.667 170.667s-170.667-76.459-170.667-170.667c0-94.167 76.459-170.668 170.667-170.668z" />
<glyph unicode="&#xe915;" glyph-name="account-remove" d="M639.974 256.085c113.792 0 341.333-56.96 341.333-170.667v-85.333h-682.667v85.333c0 113.707 227.542 170.667 341.334 170.667zM639.97 341.418c-94.208 0-170.667 76.501-170.667 170.668 0 94.208 76.459 170.667 170.667 170.667 94.212 0 170.667-76.459 170.667-170.667 0-94.166-76.454-170.668-170.667-170.668zM213.331 444.338l90.511 90.511 60.34-60.34-90.511-90.509 90.51-90.513-60.339-60.339-90.51 90.513-90.51-90.513-60.34 60.343 90.509 90.509-90.51 90.508 60.34 60.34 90.51-90.51z" />
<glyph unicode="&#xe916;" glyph-name="account-search" d="M405.333 725.333c153.173 0 277.333-124.16 277.333-277.333 0-68.693-25.186-131.861-66.999-180.501l11.998-11.499h33.668l212.915-213.333-63.582-63.582-213.333 212.915v33.668l-11.499 11.998c-48.64-41.813-111.808-66.999-180.501-66.999-153.173 0-277.333 124.16-277.333 277.333s124.16 277.333 277.333 277.333zM405.333 256c68.71 0 128.99 36.092 162.918 90.351-33.929 48.235-94.208 80.316-162.918 80.316s-128.991-32.081-162.917-80.316c33.926-54.259 94.206-90.351 162.917-90.351zM405.333 640c-41.237 0-74.667-33.429-74.667-74.667s33.429-74.667 74.667-74.667c41.237 0 74.667 33.429 74.667 74.667s-33.429 74.667-74.667 74.667z" />
<glyph unicode="&#xe917;" glyph-name="account-settings-variant" d="M383.947 682.72c-94.133 0-170.613-76.48-170.613-170.613 0-94.4 76.48-170.88 170.613-170.88 94.402 0 170.613 76.48 170.613 170.88 0 94.133-76.211 170.613-170.613 170.613zM383.947 256.055c-113.92 0-341.227-56.909-341.227-170.615v-85.44h472.693c-2.295 14.187-3.307 28.322-3.307 42.718 0 64.589 21.013 127.467 59.998 179.149-65.225 22.293-137.702 34.189-188.158 34.189zM767.518 256.055c-5.013 0-9.809-3.947-10.662-8.96l-8.111-56.269c-12.693-5.602-25.225-12.48-36.262-21.013l-52.911 21.44c-4.587 1.655-10.185-0.213-13.12-4.8l-42.718-73.758c-2.505-4.804-1.655-10.189 2.505-13.76l45.231-35.418c-0.858-6.822-1.28-13.491-1.28-20.8 0-7.305 0.422-14.182 1.28-21.065l-45.231-35.413c-3.733-3.307-5.009-8.96-2.505-13.547l42.718-73.758c2.509-4.749 8.111-6.455 13.12-4.749l52.911 21.227c11.038-8.533 23.142-15.629 36.262-20.855l8.111-56.213c0.853-5.227 5.222-8.96 10.662-8.96h85.389c5.218 0 9.813 3.733 10.637 8.96l8.124 56.213c12.706 5.658 25.207 12.322 35.853 20.855l53.333-21.227c4.745-1.707 10.189 0 13.333 4.749l42.509 73.758c2.667 4.587 1.225 10.24-2.509 13.547l-45.645 35.413c0.845 6.882 1.668 13.76 1.668 21.065 0 7.309-0.418 13.978-1.668 20.8l45.218 35.418c3.733 3.571 5.171 8.956 2.509 13.76l-42.509 73.758c-2.718 4.587-8.162 6.455-13.333 4.8l-52.907-21.44c-11.063 8.533-23.147 15.787-36.267 21.013l-8.128 56.269c-0.405 5.013-5.001 8.96-10.219 8.96zM810.189 106.666c35.413 0 64-28.531 64-63.949 0-35.413-28.587-63.945-64-63.945s-63.949 28.531-63.949 63.945c0 35.418 28.535 63.949 63.949 63.949z" />
<glyph unicode="&#xe918;" glyph-name="account-settings" d="M512 682.666c94.255 0 170.667-76.41 170.667-170.667 0-94.255-76.412-170.667-170.667-170.667-94.257 0-170.667 76.412-170.667 170.667 0 94.257 76.41 170.667 170.667 170.667zM512 256c188.514 0 341.333-76.412 341.333-170.667v-85.333h-682.667v85.333c0 94.255 152.82 170.667 341.333 170.667zM298.667-85.334h85.333v-85.333h-85.333v85.333zM469.333-85.334h85.333v-85.333h-85.333v85.333zM640-85.334h85.333v-85.333h-85.333v85.333z" />
<glyph unicode="&#xe919;" glyph-name="account-switch" d="M682.667 469.333c99.541 0 298.667-49.835 298.667-149.333v-106.667h-256v106.667c0 63.275-34.389 111.317-83.84 147.029l41.173 2.304zM341.333 469.333c99.541 0 298.667-49.835 298.667-149.333v-106.667h-597.333v106.667c0 99.499 199.083 149.333 298.667 149.333zM341.333 554.666c-70.698 0-128 57.344-128 128s57.302 128 128 128c70.7 0 127.573-57.344 127.573-128s-56.874-128-127.573-128zM682.667 554.666c-70.699 0-128 57.344-128 128s57.301 128 128 128c70.699 0 127.573-57.344 127.573-128s-56.875-128-127.573-128zM384 138.666v-96h256v96l138.667-138.667-138.667-138.667v96h-256v-96l-138.667 138.667 138.667 138.667z" />
<glyph unicode="&#xe91a;" glyph-name="account" d="M512 682.666c94.255 0 170.667-76.41 170.667-170.667 0-94.255-76.412-170.667-170.667-170.667-94.257 0-170.667 76.412-170.667 170.667 0 94.257 76.41 170.667 170.667 170.667zM512 256c188.514 0 341.333-76.412 341.333-170.667v-85.333h-682.667v85.333c0 94.255 152.82 170.667 341.333 170.667z" />
<glyph unicode="&#xe91b;" glyph-name="adjust" d="M512.107 767.893c-235.253 0-426.667-191.413-426.667-426.667 0-234.987 191.413-426.667 426.667-426.667 234.987 0 426.667 191.68 426.667 426.667 0 235.253-191.68 426.667-426.667 426.667zM512.107 0c-188.373 0-341.493 153.118-341.493 341.227 0 188.373 153.12 341.493 341.493 341.493 188.105 0 341.227-153.12 341.227-341.493 0-188.109-153.122-341.227-341.227-341.227zM640 341.226c0-70.827-57.067-127.893-127.893-127.893-70.878 0-128.16 57.067-128.16 127.893 0 70.882 57.282 128.16 128.16 128.16 70.827 0 127.893-57.278 127.893-128.16z" />
<glyph unicode="&#xe91c;" glyph-name="air-conditioner" d="M281.017 825.037c100.069 77.355 208.263-16.824 232.715-163.682 18.278-0.239 36.399-5.158 52.433-14.511 22.033 25.587 41.941 60.676 34.338 99.29-18.125 92.053 84.651 166.49 182.447 39.974 77.402-100.13-16.934-208.393-163.942-232.759-0.252-18.398-5.248-36.629-14.733-52.736 25.54-21.841 60.399-41.408 98.735-33.86 92.053 18.125 166.49-84.646 39.97-182.447-100.109-77.385-208.35 16.9-232.742 163.857-18.167 0.38-36.143 5.385-52.041 14.758-22.174-25.621-42.346-60.885-34.702-99.712 18.121-92.053-84.648-166.49-182.447-39.97-77.542 100.314 17.281 208.789 164.755 232.892 0.245 18.189 5.124 36.215 14.396 52.19-25.577 22.007-60.637 41.865-99.21 34.27-92.052-18.121-166.491 84.651-39.972 182.447zM213.333 170.666h85.333c47.128 0 85.333-38.204 85.333-85.333v-256h-85.333v85.333h-85.333v-85.333h-85.333v256c0 47.13 38.205 85.333 85.333 85.333zM213.333 85.333v-85.333h85.333v85.333h-85.333zM551.667 170.666h88.333l-125.001-341.333h-88.333l125.001 341.333zM768 170.666h128v-85.333h-128v-170.667h128v-85.333h-128c-47.13 0-85.333 38.204-85.333 85.333v170.667c0 47.13 38.204 85.333 85.333 85.333z" />
<glyph unicode="&#xe91d;" glyph-name="airballoon" d="M469.333-128c-47.128 0-85.333 38.204-85.333 85.333v85.333h256v-85.333c0-47.13-38.204-85.333-85.333-85.333h-85.333zM512 810.666c30.161 0 59.409-3.912 87.262-11.256 49.946-66.991 83.405-189.743 83.405-330.077 0-97.387-16.111-186.308-42.667-298.667 0-47.13-38.204-85.333-85.333-85.333h-85.333c-47.128 0-85.333 38.204-85.333 85.333-26.554 112.358-42.667 201.28-42.667 298.667 0 140.334 33.457 263.086 83.403 330.077 27.855 7.344 57.103 11.256 87.264 11.256zM853.333 511.999c0-135.59-79.057-338.048-193.591-393.122 40.427 77.641 65.591 229.504 65.591 350.455s-25.165 230.147-65.591 307.79c114.534-55.077 193.591-129.535 193.591-265.123zM170.667 511.999c0 135.589 79.058 210.046 193.591 265.123-40.428-77.643-65.591-186.839-65.591-307.79s25.164-272.815 65.592-350.455c-114.534 55.074-193.592 257.532-193.592 393.122z" />
<glyph unicode="&#xe91e;" glyph-name="airplane-landing" d="M106.667 42.666h810.667v-85.333h-810.667v85.333zM413.013 287.146l412.16-110.080c34.133-8.96 69.12 11.093 78.507 45.227 8.96 34.133-11.093 69.12-45.227 78.507l-226.56 60.587-117.76 384.853-82.347 21.76v-353.28l-212.053 56.747-39.68 98.987-61.867 16.64v-220.587l294.827-79.36z" />
<glyph unicode="&#xe91f;" glyph-name="airplane-off" d="M134.246 628.423l212.736-212.735-255.403-159.616v-85.333l341.333 106.667v-234.667l-85.333-64v-64l149.333 42.667 149.333-42.667v64l-85.333 64v159.019l244.352-244.352 54.272 54.315-670.976 671.017zM560.913 469.404v234.667c0 35.371-28.672 64-64 64s-64-28.629-64-64v-157.098l333.952-333.908 135.381-42.325v85.333l-341.333 213.332z" />
<glyph unicode="&#xe920;" glyph-name="airplane-takeoff" d="M106.667 42.666h810.667v-85.333h-810.667v85.333zM941.653 442.026c-8.96 34.133-44.373 54.613-78.507 45.227l-226.56-60.587-294.4 274.347-82.347-21.76 176.64-305.92-212.053-56.747-84.053 65.707-61.867-16.64 77.653-134.827 32.853-56.747 68.267 18.347 638.72 170.667c34.56 9.813 54.613 44.8 45.653 78.933z" />
<glyph unicode="&#xe921;" glyph-name="airplane" d="M895.974 170.752v85.333l-341.333 213.331v234.667c0 35.371-28.672 64-64 64s-64-28.629-64-64v-234.667l-341.333-213.331v-85.333l341.333 106.667v-234.667l-85.333-64v-64l149.333 42.667 149.333-42.667v64l-85.333 64v234.667l341.333-106.667z" />
<glyph unicode="&#xe922;" glyph-name="airplay" d="M256-85.547h511.842l-255.791 256.051zM896 725.333h-768.16c-46.827 0-85.173-38.56-85.173-85.44v-512.107c0-46.827 38.346-85.175 85.173-85.175h170.88v85.175h-170.88v512.107h768.16v-512.107h-170.615v-85.175h170.615c46.878 0 85.171 38.349 85.171 85.175v512.107c0 46.88-38.293 85.44-85.171 85.44z" />
<glyph unicode="&#xe923;" glyph-name="alarm-check" d="M449.707 233.386l-90.88 90.88-45.227-45.227 135.68-135.68 256 256-45.227 45.227-210.347-211.2zM512 0c-165.12 0-298.667 133.547-298.667 298.667s133.547 298.667 298.667 298.667c165.12 0 298.667-133.547 298.667-298.667s-133.547-298.667-298.667-298.667zM512 682.666c-212.053 0-384-171.947-384-384s171.52-384 384-384c212.053 0 384 171.947 384 384s-171.947 384-384 384zM336.213 708.693l-54.613 65.28-196.267-164.267 55.040-65.28 195.84 164.267zM938.667 609.28l-196.267 164.693-55.040-65.28 196.267-164.693 55.040 65.28z" />
<glyph unicode="&#xe924;" glyph-name="alarm-multiple" d="M396.459 714.623l-176.256-147.849-49.536 58.761 176.64 147.84 49.152-58.752zM938.667 625.151l-49.536-58.752-176.64 148.224 49.536 58.752 176.64-148.224zM554.667 682.666c188.514 0 341.333-152.82 341.333-341.333 0-188.514-152.819-341.333-341.333-341.333s-341.333 152.819-341.333 341.333c0 188.513 152.82 341.333 341.333 341.333zM554.667 597.333c-141.385 0-256-114.615-256-256s114.615-256 256-256c141.385 0 256 114.615 256 256s-114.615 256-256 256zM512 533.333h64v-193.468l137.267-62.434-26.496-58.257-174.771 79.492v234.667zM42.667 256c0 105.988 48.309 200.697 124.11 263.304-24.895-54.169-38.776-114.448-38.776-177.97l2.684-48.124-2.685-37.21c0-97.19 54.162-181.734 133.949-225.088 55.543-52.395 125.144-90.044 202.55-106.701-25.813-6.238-52.77-9.545-80.499-9.545-188.513 0-341.333 152.819-341.333 341.333z" />
<glyph unicode="&#xe925;" glyph-name="alarm-off" d="M342.187 713.386l-60.587 60.587-36.693-30.293 60.587-60.587zM702.72 68.693c-51.627-42.667-118.187-68.693-190.72-68.693-165.12 0-298.667 133.547-298.667 298.667 0 72.533 26.027 139.093 68.693 190.72zM124.587 755.626l-54.187-54.613 56.747-56.747-47.36-39.68 60.587-60.587 47.36 40.107 34.133-34.133c-58.453-67.413-93.867-155.307-93.867-251.307 0-212.053 171.52-384 384-384 96 0 183.893 35.413 251.307 93.867l93.867-93.867 54.187 54.187-786.773 786.773zM938.667 609.28l-196.267 164.693-55.040-65.28 196.267-164.693 55.040 65.28zM512 597.333c165.12 0 298.667-133.547 298.667-298.667 0-35.84-6.827-70.4-18.347-102.4l64.853-64.853c24.747 50.773 38.827 107.093 38.827 167.253 0 212.053-171.947 384-384 384-60.16 0-116.48-14.080-167.253-38.827l64.853-64.853c32 11.52 66.56 18.347 102.4 18.347z" />
<glyph unicode="&#xe926;" glyph-name="alarm-plus" d="M554.667 469.333h-85.333v-128h-128v-85.333h128v-128h85.333v128h128v85.333h-128zM512 0c-165.12 0-298.667 133.547-298.667 298.667s133.547 298.667 298.667 298.667c165.12 0 298.667-133.547 298.667-298.667s-133.547-298.667-298.667-298.667zM512 682.666c-212.053 0-384-171.947-384-384s171.52-384 384-384c212.053 0 384 171.947 384 384s-171.947 384-384 384zM938.667 609.28l-196.267 164.693-55.040-65.28 196.267-164.693zM336.213 708.693l-54.613 65.28-196.267-164.267 55.040-65.28 195.84 164.267z" />
<glyph unicode="&#xe927;" glyph-name="alarm-snooze" d="M336.213 708.693l-54.613 65.28-196.267-164.267 55.040-65.28 195.84 164.267zM938.667 609.28l-196.267 164.693-55.040-65.28 196.267-164.693 55.040 65.28zM512 682.666c-212.053 0-384-171.947-384-384s171.52-384 384-384c212.053 0 384 171.947 384 384s-171.947 384-384 384zM512 0c-165.12 0-298.667 133.547-298.667 298.667s133.547 298.667 298.667 298.667c165.12 0 298.667-133.547 298.667-298.667s-133.547-298.667-298.667-298.667zM384 384h154.88l-154.88-179.2v-76.8h256v85.333h-154.88l154.88 179.2v76.8h-256v-85.333z" />
<glyph unicode="&#xe928;" glyph-name="alarm" d="M512 0c-165.12 0-298.667 133.547-298.667 298.667s133.547 298.667 298.667 298.667c165.12 0 298.667-133.547 298.667-298.667s-133.547-298.667-298.667-298.667zM512 682.666c-212.053 0-384-171.947-384-384s171.52-384 384-384c212.053 0 384 171.947 384 384s-171.947 384-384 384zM533.333 512h-64v-256l202.667-121.6 32 52.48-170.667 101.12v224zM336.213 708.693l-54.613 65.28-196.267-164.267 55.040-65.28 195.84 164.267zM938.667 609.28l-196.267 164.693-55.040-65.28 196.267-164.693 55.040 65.28z" />
<glyph unicode="&#xe929;" glyph-name="album" d="M512 384c-23.467 0-42.667-19.2-42.667-42.667s19.2-42.667 42.667-42.667c23.467 0 42.667 19.2 42.667 42.667s-19.2 42.667-42.667 42.667zM512 149.333c-106.24 0-192 85.76-192 192s85.76 192 192 192c106.24 0 192-85.76 192-192s-85.76-192-192-192zM512 768c-235.52 0-426.667-191.147-426.667-426.667s191.147-426.667 426.667-426.667c235.52 0 426.667 191.147 426.667 426.667s-191.147 426.667-426.667 426.667z" />
<glyph unicode="&#xe92a;" glyph-name="alert-box" d="M213.333 725.332h597.333c47.13 0 85.333-38.205 85.333-85.333v-597.333c0-47.13-38.204-85.333-85.333-85.333h-597.333c-47.128 0-85.333 38.204-85.333 85.333v597.333c0 47.128 38.205 85.333 85.333 85.333zM554.641 298.752v255.998h-85.333v-255.998h85.333zM554.641 128.085v85.333h-85.333v-85.333h85.333z" />
<glyph unicode="&#xe92b;" glyph-name="alert-circle-outline" d="M469.333 213.333h85.333v-85.333h-85.333v85.333zM469.333 554.666h85.333v-256h-85.333v256zM511.573 768c-235.52 0-426.24-191.147-426.24-426.667s190.72-426.667 426.24-426.667c235.947 0 427.093 191.147 427.093 426.667s-191.147 426.667-427.093 426.667zM512 0c-188.587 0-341.333 152.747-341.333 341.333s152.747 341.333 341.333 341.333c188.587 0 341.333-152.747 341.333-341.333s-152.747-341.333-341.333-341.333z" />
<glyph unicode="&#xe92c;" glyph-name="alert-circle" d="M554.641 298.752h-85.333v255.998h85.333zM554.641 128.085h-85.333v85.333h85.333zM511.974 768.083c-235.648 0-426.667-191.018-426.667-426.665 0-235.652 191.019-426.667 426.667-426.667s426.667 191.014 426.667 426.667c0 235.646-191.019 426.665-426.667 426.665z" />
<glyph unicode="&#xe92d;" glyph-name="alert-decagram" d="M981.333 341.333l-104.107 118.613 14.507 157.013-154.027 34.987-80.64 135.68-145.067-62.293-145.067 62.293-80.64-135.68-154.027-34.56 14.507-157.013-104.107-119.040 104.107-118.613-14.507-157.44 154.027-34.987 80.64-135.68 145.067 62.72 145.067-62.293 80.64 135.68 154.027 34.987-14.507 157.013 104.107 118.613zM554.667 128h-85.333v85.333h85.333v-85.333zM554.667 298.666h-85.333v256h85.333v-256z" />
<glyph unicode="&#xe92e;" glyph-name="alert-octagon" d="M554.641 298.752h-85.333v255.998h85.333zM511.974 115.285c-30.592 0-55.467 24.832-55.467 55.467 0 30.588 24.875 55.462 55.467 55.462s55.467-24.875 55.467-55.462c0-30.635-24.875-55.467-55.467-55.467zM671.036 725.416h-318.146l-224.916-224.937v-318.126l224.916-224.934h318.146l224.939 224.934v318.126l-224.939 224.937z" />
<glyph unicode="&#xe92f;" glyph-name="alert-octagram" d="M93.9 168.149l71.734 173.184-71.735 173.184 173.184 71.735 71.734 173.181 173.183-71.734 173.184 71.735 71.735-173.184 173.18-71.735-71.735-173.183 71.735-173.184-173.18-71.731-71.735-173.184-173.184 71.735-173.183-71.735-71.735 173.184-173.182 71.731zM554.667 128.213v85.333h-85.333v-85.333h85.333zM554.667 298.88v256h-85.333v-256h85.333z" />
<glyph unicode="&#xe930;" glyph-name="alert-outline" d="M512.107 767.893l-469.387-810.611h938.507zM512.107 597.28l321.229-554.562h-642.722zM469.389 426.666v-170.611h85.171v170.611zM469.389 170.615v-85.175h85.171v85.175z" />
<glyph unicode="&#xe931;" glyph-name="alert" d="M554.667 256h-85.333v170.668h85.333zM554.667 85.333h-85.333v85.333h85.333zM42.667-42.667h938.667l-469.333 810.668-469.333-810.668z" />
<glyph unicode="&#xe932;" glyph-name="all-inclusive" d="M793.6 570.88c-61.431 0-119.467-23.893-160.853-65.28l-299.947-266.24c-27.306-27.307-63.573-42.24-102.4-42.24-79.787 0-144.64 64.427-144.64 144.213s64.853 144.213 144.64 144.213c38.827 0 75.094-14.933 104.107-43.947l48.213-42.667 64.427 57.173-53.76 47.36c-43.52 43.52-101.546 67.413-162.987 67.413-127.147 0-230.4-103.253-230.4-229.547s103.253-229.547 230.4-229.547c61.44 0 119.467 23.893 160.853 65.28l299.947 266.24c27.298 27.307 63.573 42.24 102.4 42.24 79.787 0 144.649-64.427 144.649-144.213s-64.862-144.213-144.649-144.213c-38.4 0-75.102 14.933-104.098 43.947l-48.649 43.093-64.427-57.173 54.187-47.787c43.52-43.093 101.12-66.987 162.987-66.987 127.151 0 230.4 102.827 230.4 229.547s-103.249 229.12-230.4 229.12z" />
<glyph unicode="&#xe933;" glyph-name="alpha" d="M771.413 94.007c-19.533-5.781-37.026-8.674-52.48-8.674-51.106 0-85.572 37.734-103.394 113.207h-2.133c-41.911-81.54-100.646-122.308-176.213-122.308-55.847 0-100.576 21.12-134.188 63.36s-50.418 95.595-50.418 160.068c0 73.579 19.058 133.619 57.173 180.126s89.695 69.76 154.739 69.76c35.174 0 66.513-9.719 94.007-29.156s48.354-46.791 62.579-82.062h1.707l30.293 102.115h109.227l-91.166-226.703c10.052-53.188 20.693-89.387 31.927-108.587 11.238-19.2 25.86-28.8 43.878-28.8 9.766 0 18.202 1.519 25.314 4.553l-0.853-86.899zM589.794 317.299c-9.289 48.542-23.654 85.734-43.093 111.572-19.435 25.837-42.714 38.756-69.828 38.756-34.987 0-62.911-15.692-83.77-47.074-20.859-31.386-31.289-70.071-31.289-116.053 0-41.532 9.055-76.305 27.165-104.32 18.109-28.019 42.335-42.027 72.675-42.027 25.6 0 48.973 12.041 70.114 36.122 21.146 24.085 38.733 59.452 52.766 106.099l5.261 16.926z" />
<glyph unicode="&#xe934;" glyph-name="alphabetical" d="M256 384c47.128 0 85.333-38.204 85.333-85.333v-170.667h-170.667c-47.128 0-85.333 38.204-85.333 85.333v85.333c0 47.13 38.205 85.333 85.333 85.333h85.333zM170.667 298.666v-85.333h85.333v85.333h-85.333zM853.333 298.666v-85.333h85.333v-85.333h-85.333c-47.13 0-85.333 38.204-85.333 85.333v85.333c0 47.13 38.204 85.333 85.333 85.333h85.333v-85.333h-85.333zM512 554.666v-170.667h85.333c47.13 0 85.333-38.204 85.333-85.333v-85.333c0-47.13-38.204-85.333-85.333-85.333h-85.333c-47.13 0-85.333 38.204-85.333 85.333v341.333h85.333zM512 213.333h85.333v85.333h-85.333v-85.333z" />
<glyph unicode="&#xe935;" glyph-name="altimeter" d="M298.667 725.333v-85.333h426.667v85.333h-426.667zM384 554.666v-85.333h256v85.333h-256zM85.25 513.502v-344.337l172.166 172.169-172.166 172.169zM940.083 513.502l-172.169-172.169 172.169-172.169v344.337zM298.667 384v-85.333h426.667v85.333h-426.667zM384 213.333v-85.333h256v85.333h-256zM298.667 42.666v-85.333h426.667v85.333h-426.667z" />
<glyph unicode="&#xe936;" glyph-name="amazon-clouddrive" d="M210.824 378.982c12.197 0 23.988-1.741 35.137-4.988 0.018 91.468 74.174 165.613 165.647 165.613 69.403 0 128.834-42.682 153.482-103.227 24.777 32.246 63.731 53.031 107.537 53.031 74.85 0 135.531-60.679 135.531-135.53 0-10.62-1.225-20.958-3.533-30.878 10.517 3.742 21.845 5.781 33.651 5.781 55.445 0 100.39-44.949 100.39-100.395 0-55.441-44.945-100.39-100.39-100.39s-566.967 0-627.453 0c-69.306 0-125.49 56.183-125.49 125.491 0 69.303 56.184 125.491 125.49 125.491z" />
<glyph unicode="&#xe937;" glyph-name="amazon" d="M679.701 124.271c-7.573-6.788-18.487-7.245-27.008-2.662-37.978 31.556-44.779 46.144-65.532 76.181-62.746-63.923-107.191-83.093-188.463-83.093-96.25 0-171.101 59.388-171.101 178.167 0 92.8 50.259 155.898 121.906 186.833 62.023 27.225 148.651 32.171 214.938 39.597v14.847c0 27.22 2.142 59.396-13.888 82.898-13.905 21.040-40.649 29.701-64.162 29.701-43.601 0-82.374-22.343-91.883-68.645-1.988-10.301-9.498-20.489-19.869-21.014l-110.787 11.992c-9.358 2.108-19.767 9.611-17.057 23.895 25.452 134.422 146.839 175.032 255.626 175.032 55.616 0 128.324-14.847 172.177-56.919 55.603-51.969 50.257-121.26 50.257-196.737v-178.096c0-53.572 22.251-77.073 43.145-105.946 7.292-10.394 8.939-22.767-0.367-30.357l-87.667-75.93-0.265 0.256zM564.442 402.986v24.742c-82.688 0-170.023-17.707-170.023-115.068 0-49.485 25.668-82.906 69.509-82.906 32.085 0 60.958 19.793 79.13 51.968 22.464 39.599 21.385 76.715 21.385 121.263zM860.139 19.78c-92.979-68.617-227.789-105.114-343.868-105.114-162.693 0-309.189 60.134-420.059 160.247-8.702 7.855-0.938 18.598 9.525 12.51 119.611-69.606 267.523-111.526 420.301-111.526 103.057 0 216.35 21.389 320.589 65.6 15.718 6.673 28.898-10.359 13.513-21.717zM898.837 63.948c-11.9 15.232-78.626 7.223-108.595 3.635-9.079-1.088-10.487 6.835-2.3 12.587 53.222 37.385 140.429 26.586 150.566 14.076 10.219-12.629-2.671-100.066-52.557-141.798-7.671-6.421-14.967-2.995-11.567 5.487 11.221 28.028 36.352 90.786 24.452 106.014z" />
<glyph unicode="&#xe938;" glyph-name="ambulance" d="M767.974 64.081c35.328 0 64 28.672 64 64s-28.672 64-64 64c-35.328 0-64-28.672-64-64s28.672-64 64-64zM831.974 448.082h-106.667v-106.668h190.464l-83.797 106.668zM255.975 64.081c35.328 0 64 28.672 64 64s-28.672 64-64 64c-35.328 0-64-28.672-64-64s28.672-64 64-64zM853.308 512.082l128-170.668v-213.333h-85.333c0-70.699-57.301-128-128-128s-128 57.301-128 128h-256c0-70.699-57.301-128-128-128s-128 57.301-128 128h-85.333v469.335c0 47.147 38.187 85.333 85.333 85.333h597.333v-170.667h128zM341.333 597.333v-128h-128v-85.333h128v-128h85.333v128h128v85.333h-128v128h-85.333z" />
<glyph unicode="&#xe939;" glyph-name="amplifier" d="M426.666 767.999h170.667c23.637 0 42.667-19.029 42.667-42.666h256v-768h-85.333c0-23.565-19.102-42.667-42.667-42.667s-42.667 19.102-42.667 42.667h-426.667c0-23.565-19.103-42.667-42.667-42.667s-42.667 19.102-42.667 42.667h-85.333v768h256c0 23.637 19.029 42.666 42.666 42.666zM213.333 639.999v-170.666h597.333v170.666h-597.333zM298.666 597.332c23.564 0 42.667-19.102 42.667-42.667s-19.103-42.667-42.667-42.667c-23.564 0-42.667 19.102-42.667 42.667s19.103 42.667 42.667 42.667zM512 597.333h85.333v-42.667h-85.333v42.667zM640 597.332h42.667v-85.333h-42.667v85.333zM725.333 597.332h42.667v-85.333h-42.667v85.333zM512 384c-94.257 0-170.667-76.412-170.667-170.667s76.41-170.667 170.667-170.667c94.255 0 170.667 76.412 170.667 170.667s-76.412 170.667-170.667 170.667zM426.667 597.333c23.565 0 42.667-19.103 42.667-42.667s-19.102-42.667-42.667-42.667c-23.564 0-42.667 19.102-42.667 42.667s19.102 42.667 42.667 42.667z" />
<glyph unicode="&#xe93a;" glyph-name="anchor" d="M512.107 767.893c-70.878 0-128.16-57.258-128.16-127.893 0-54.187 34.187-102.507 85.442-120.64v-92.693h-128.162v-85.44h128.162v-294.985c-78.562 12.318-147.949 57.489-190.615 124.373h62.453v85.44h-213.333v-213.338h85.44v72.482c67.52-98.505 179.147-157.709 298.773-157.918 119.36 0.209 231.040 59.2 298.509 157.705v-72.269h85.44v213.338h-213.338v-85.44h62.298c-42.722-66.667-112.111-112.055-190.455-124.373v294.985h128.158v85.44h-128.158v92.907c51.255 17.92 85.44 66.24 85.44 120.427 0 70.636-57.28 127.893-127.893 127.893zM512.107 682.72c23.518 0 42.453-19.2 42.453-42.72s-18.935-42.72-42.453-42.72c-23.787 0-42.718 19.2-42.718 42.72s18.931 42.72 42.718 42.72z" />
<glyph unicode="&#xe93b;" glyph-name="android-debug-bridge" d="M639.974 469.415c-23.595 0-42.667 19.115-42.667 42.667s19.072 42.667 42.667 42.667c23.595 0 42.667-19.115 42.667-42.667s-19.072-42.667-42.667-42.667zM383.974 469.415c-23.595 0-42.667 19.115-42.667 42.667s19.072 42.667 42.667 42.667c23.595 0 42.667-19.115 42.667-42.667s-19.072-42.667-42.667-42.667zM687.889 667.005l89.545 89.558-35.187 35.242-98.304-98.347c-39.979 19.797-84.395 31.957-131.968 31.957s-91.99-12.16-131.969-31.957l-98.347 98.347-35.157-35.242 89.557-89.558c-74.069-54.315-122.752-141.312-122.752-240.256v-42.668h597.334v42.668c0 98.944-48.683 185.941-122.752 240.256zM213.307 170.747c0-164.949 133.717-298.667 298.668-298.667s298.667 133.717 298.667 298.667v170.667h-597.334v-170.667z" />
<glyph unicode="&#xe93c;" glyph-name="android-studio" d="M469.333 768h85.333v-85.333h21.333c35.345 0 64-28.654 64-64v-149.333l-18.679-18.681 70.042-121.317c47.3 46.451 76.638 111.132 76.638 182.665h85.333c0-103.24-45.837-195.776-118.263-258.363l133.879-231.893 5.717-95.232-79.616 52.565-131.157 227.166c-45.743-22.771-97.323-35.575-151.893-35.575s-106.149 12.804-151.895 35.575l-131.154-227.166-79.617-52.565 5.716 95.232 247.631 428.91-18.68 18.68v149.333c0 35.346 28.654 64 64 64h21.333v85.333zM402.89 280.35c33.1-15.616 70.083-24.35 109.11-24.35 39.023 0 76.011 8.734 109.107 24.35l-62.255 107.836h-0.316c-26.274-26.278-66.799-26.278-93.073 0h-0.316l-62.258-107.836zM512 597.333c-23.565 0-42.667-19.103-42.667-42.667s19.102-42.667 42.667-42.667c23.565 0 42.667 19.102 42.667 42.667s-19.102 42.667-42.667 42.667z" />
<glyph unicode="&#xe93d;" glyph-name="android" d="M639.974 640.083h-42.667v42.667h42.667zM426.641 640.083h-42.667v42.667h42.667zM662.673 761.341l55.637 55.638c8.32 8.362 8.32 21.846 0 30.208-8.32 8.32-21.845 8.32-30.165 0l-63.019-63.062c-34.176 16.896-72.491 26.625-113.152 26.625-40.875 0-79.36-9.857-113.623-26.839l-63.273 63.276c-8.362 8.32-21.846 8.32-30.208 0-8.32-8.362-8.32-21.846 0-30.208l55.979-55.935c-63.49-46.594-104.875-121.516-104.875-206.295h512c0 84.951-41.557 160.042-105.301 206.591zM874.641 512.083c-35.328 0-64-28.63-64-64v-298.665c0-35.371 28.672-64 64-64s64 28.629 64 64v298.665c0 35.37-28.672 64-64 64zM149.307 512.083c-35.328 0-64-28.63-64-64v-298.665c0-35.371 28.672-64 64-64s64 28.629 64 64v298.665c0 35.37-28.672 64-64 64zM255.974 85.418c0-23.514 19.156-42.667 42.667-42.667h42.667v-149.333c0-35.371 28.672-64 64-64s64 28.629 64 64v149.333h85.333v-149.333c0-35.371 28.672-64 64-64s64 28.629 64 64v149.333h42.667c23.509 0 42.667 19.153 42.667 42.667v426.665h-512v-426.665z" />
<glyph unicode="&#xe93e;" glyph-name="angular" d="M512 746.666l377.365-134.571-57.557-498.965-319.808-177.131-319.808 177.131-57.557 498.965 377.365 134.571zM512 657.088l-235.904-528.96h87.957l47.424 118.357h200.235l47.424-118.357h87.957l-235.093 528.96zM580.907 319.445h-137.813l68.907 165.781 68.907-165.781z" />
<glyph unicode="&#xe93f;" glyph-name="angularjs" d="M512 746.666l377.365-134.571-57.557-498.965-319.808-177.131-319.808 177.131-57.557 498.965 377.365 134.571zM512 661.333l-297.92-106.24 45.44-393.92 252.48-139.84 252.48 139.84 45.44 393.92-297.92 106.24zM512 609.279l195.366-439.577h-73.092l-39.411 98.355h-166.4l-39.411-98.355h-73.094l196.042 439.577zM569.263 328.691l-57.263 137.767-57.263-137.767h114.526z" />
<glyph unicode="&#xe940;" glyph-name="animation" d="M170.667 768c-47.275 0-85.333-38.059-85.333-85.333v-426.667h85.333v426.667h426.667v85.333h-426.667zM341.333 597.333c-47.275 0-85.333-38.059-85.333-85.333v-426.667h85.333v426.667h426.667v85.333h-426.667zM512 426.666c-47.275 0-85.333-38.059-85.333-85.333v-341.333c0-47.275 38.059-85.333 85.333-85.333h341.333c47.275 0 85.333 38.059 85.333 85.333v341.333c0 47.275-38.059 85.333-85.333 85.333h-341.333z" />
<glyph unicode="&#xe941;" glyph-name="apple-finder" d="M170.667 682.666h336.525c24.307 46.618 53.146 90.586 87.27 127.838l47.206-47.203c-18.146-25.317-34.466-52.493-49.143-80.635h260.809c47.13 0 85.333-38.205 85.333-85.333v-554.667c0-47.13-38.204-85.333-85.333-85.333h-216.512l14.315-52.45-78.242-30.942-21.346 83.392h-380.881c-47.128 0-85.333 38.204-85.333 85.333v554.667c0 47.128 38.205 85.333 85.333 85.333zM170.667 597.333v-554.666h364.386c-2.236 14.042-4.271 28.335-6.037 42.812-5.641-0.098-11.315-0.145-17.015-0.145-117.453 0-222.59 20.506-293.028 52.817l38.843 69.918c40.992-22.071 133.525-37.402 254.185-37.402 3.401 0 6.775 0.013 10.133 0.034-1.033 28.476-0.691 57.079 1.421 85.299h-139.555c0 0 17.204 172.043 84.387 341.333h-297.719zM853.333 42.666v554.666h-299.614c-37.564-94.658-59.503-190.178-71.548-256h122.509c-8.294-54.601-8.794-111.842-4.612-167.706 77.261 5.474 135.791 18.112 166.118 34.441l38.839-69.918c-50.202-23.027-118.033-40.060-195.388-47.949 2.466-16.196 5.218-32.077 8.162-47.535h235.533zM256 512h85.333v-128h-85.333v128zM682.667 512h85.333v-128h-85.333v128z" />
<glyph unicode="&#xe942;" glyph-name="apple-ios" d="M853.333 469.333v85.333h-170.667c-46.933 0-85.333-38.4-85.333-85.333v-85.333c0-46.933 38.4-85.333 85.333-85.333h85.333v-85.333h-170.667v-85.333h170.667c46.933 0 85.333 38.4 85.333 85.333v85.333c0 46.933-38.4 85.333-85.333 85.333h-85.333v85.333zM469.333 213.333h-85.333v256h85.333zM469.333 554.666h-85.333c-46.933 0-85.333-38.4-85.333-85.333v-256c0-46.933 38.4-85.333 85.333-85.333h85.333c46.933 0 85.333 38.4 85.333 85.333v256c0 46.933-38.4 85.333-85.333 85.333zM170.667 128h85.333v256h-85.333zM170.667 469.333h85.333v85.333h-85.333v-85.333z" />
<glyph unicode="&#xe943;" glyph-name="apple-keyboard-caps" d="M640 256v256h92.655l-220.655 220.654-220.654-220.654h92.654v-256h256zM512 853.332l426.667-426.666h-213.333v-256h-426.667v256h-213.333l426.667 426.666zM298.667 85.333h426.667v-256h-426.667v256zM640 0h-256v-85.333h256v85.333z" />
<glyph unicode="&#xe944;" glyph-name="apple-keyboard-command" d="M256 768c94.257 0 170.667-76.41 170.667-170.667v-85.333h170.667v85.333c0 94.257 76.412 170.666 170.667 170.666s170.667-76.41 170.667-170.666c0-94.257-76.412-170.667-170.667-170.667h-85.333v-170.667h85.333c94.255 0 170.667-76.412 170.667-170.667s-76.412-170.667-170.667-170.667c-94.255 0-170.667 76.412-170.667 170.667v85.333h-170.667v-85.333c0-94.255-76.41-170.667-170.667-170.667s-170.667 76.412-170.667 170.667c0 94.255 76.41 170.667 170.667 170.667h85.333v170.667h-85.333c-94.257 0-170.667 76.41-170.667 170.667s76.41 170.667 170.667 170.667zM682.667 85.333c0-47.13 38.204-85.333 85.333-85.333s85.333 38.204 85.333 85.333c0 47.13-38.204 85.333-85.333 85.333h-85.333v-85.333zM597.333 426.666h-170.667v-170.667h170.667v170.667zM256 170.666c-47.128 0-85.333-38.204-85.333-85.333s38.205-85.333 85.333-85.333c47.128 0 85.333 38.204 85.333 85.333v85.333h-85.333zM341.333 597.333c0 47.128-38.205 85.333-85.333 85.333s-85.333-38.205-85.333-85.333c0-47.128 38.205-85.333 85.333-85.333h85.333v85.333zM768 512c47.13 0 85.333 38.205 85.333 85.333s-38.204 85.333-85.333 85.333c-47.13 0-85.333-38.205-85.333-85.333v-85.333h85.333z" />
<glyph unicode="&#xe945;" glyph-name="apple-keyboard-control" d="M843.87 350.796l-60.339-60.339-271.531 271.529-271.529-271.529-60.34 60.339 331.869 331.87 331.87-331.87z" />
<glyph unicode="&#xe946;" glyph-name="apple-keyboard-option" d="M128 682.666h260.659l300.331-597.333h207.010v-85.333h-261.090l-300.381 597.333h-206.529v85.333zM597.333 682.666h298.667v-85.333h-298.667v85.333z" />
<glyph unicode="&#xe947;" glyph-name="apple-keyboard-shift" d="M640 85.333v256h92.655l-220.655 220.654-220.652-220.654h92.654v-256h255.999zM512 682.666l426.667-426.667h-213.333v-256h-426.665v256h-213.333l426.665 426.667z" />
<glyph unicode="&#xe948;" glyph-name="apple-mobileme" d="M938.667 211.434c0-93.21-74.999-168.768-167.539-168.768h-518.256c-92.539 0-167.538 75.558-167.538 168.768 0 84.19 61.155 153.933 141.179 166.686-1.043 5.918-1.612 11.985-1.612 18.244 0 59.059 47.503 106.941 106.193 106.941 26.169 0 50.156-9.529 68.551-25.382 32.995 74.818 75.282 143.113 193.801 143.113 143.74 0 211.819-111.711 211.819-229.574 0-4.932-0.192-9.813-0.478-14.647 76.42-15.684 133.879-83.763 133.879-165.38z" />
<glyph unicode="&#xe949;" glyph-name="apple-safari" d="M512 768c235.639 0 426.667-191.025 426.667-426.667 0-235.639-191.027-426.667-426.667-426.667-235.642 0-426.667 191.027-426.667 426.667 0 235.642 191.025 426.667 426.667 426.667zM512 682.666c-188.513 0-341.333-152.82-341.333-341.333 0-89.105 34.144-170.236 90.061-231.023l160.765 321.529 321.53 160.765c-60.787 55.918-141.918 90.061-231.023 90.061zM512 0c188.514 0 341.333 152.819 341.333 341.333 0 89.103-34.142 170.231-90.057 231.017l-160.764-321.53-321.532-160.764c60.786-55.915 141.915-90.057 231.019-90.057zM512 341.329l-32.683 32.687-65.367-130.735 130.736 65.365-32.687 32.683zM512 106.666h42.667v-64h-42.667v64zM677.555 175.424l30.17 30.17 45.257-45.252-30.174-30.17-45.252 45.252zM746.001 341.111v42.667h64v-42.667h-64zM512 576h-42.667v64h42.667v-64zM346.445 507.24l-30.17-30.17-45.255 45.255 30.17 30.17 45.255-45.255zM278 341.555v-42.667h-64v42.667h64z" />
<glyph unicode="&#xe94a;" glyph-name="apple" d="M798.165 20.561c-35.465-52.023-72.149-103.727-130.069-104.811-57.003-1.084-75.277 33.869-140.322 33.869-65.114 0-85.483-32.785-139.303-34.953-55.916-2.099-98.434 56.188-134.191 107.977-73.050 105.89-128.805 299.405-53.821 430 37.132 64.856 103.668 105.891 175.77 106.975 54.912 1.014 106.787-37.137 140.327-37.137 33.591 0 96.555 45.804 162.748 39.086 27.708-1.148 105.472-11.2 155.413-84.505-3.947-2.602-92.821-54.47-91.738-162.527 1.088-129.079 112.759-171.985 114.057-172.57-1.011-3.034-17.852-61.252-58.871-121.404zM554.978 703.363c30.656 36.035 82.453 62.838 125.201 64.639 5.461-50.054-14.613-100.178-44.262-136.296-29.709-36.053-78.34-64.138-126.067-60.388-6.485 48.971 17.57 100.044 45.129 132.046z" />
<glyph unicode="&#xe94b;" glyph-name="application" d="M810.667 682.666c47.36 0 85.333-38.4 85.333-85.333v-512c0-46.933-38.4-85.333-85.333-85.333h-597.333c-47.36 0-85.333 38.4-85.333 85.333v512c0 46.933 37.973 85.333 85.333 85.333h597.333zM810.667 85.333v426.667h-597.333v-426.667h597.333z" />
<glyph unicode="&#xe94c;" glyph-name="appnet" d="M617.553 463.267c25.481 61.877 72.798 207.469 80.077 232.948s25.481 29.118 36.399 29.118h87.356c14.558 0 22.75-10.92 19.11-29.119-91.908-323.944-153.783-418.578-153.783-440.415 0-54.601 58.236-156.514 112.832-156.514 32.759 0 25.481 47.317 61.879 47.317h69.154c10.923 0 21.841-10.918 21.841-29.116 0-18.202-20.245-160.154-158.562-160.154-138.313 0-189.952 167.202-189.952 167.202-18.197-36.399-124.663-167.202-255.695-167.202-232.948 0-276.625 247.505-276.625 393.101 0 145.591 69.156 374.899 265.706 374.899 196.552 0 280.264-262.066 280.264-262.066zM191.697 361.352c0-83.716-3.64-258.428 149.686-262.067 86.901-3.639 166.978 105.553 204.968 192.909-52.548 181.992-88.947 291.187-205.422 291.187-156.512-3.64-149.232-222.028-149.232-222.028z" />
<glyph unicode="&#xe94d;" glyph-name="apps" d="M682.641 0.081h170.667v170.667h-170.667zM682.641 256.081h170.667v170.668h-170.667zM426.64 512.082h170.668v170.667h-170.668zM682.641 512.082h170.667v170.667h-170.667zM426.64 256.081h170.668v170.668h-170.668zM170.64 256.081h170.667v170.668h-170.667zM170.64 0.081h170.667v170.667h-170.667zM426.64 0.081h170.668v170.667h-170.668zM170.64 512.082h170.667v170.667h-170.667v-170.667z" />
<glyph unicode="&#xe94e;" glyph-name="archive" d="M128 725.333h768v-170.667h-768v170.667zM170.667 511.999h682.667v-554.666h-682.667v554.666zM405.333 384c-11.782 0-21.333-9.553-21.333-21.333v-64h256v64c0 11.78-9.553 21.333-21.333 21.333h-213.333z" />
<glyph unicode="&#xe94f;" glyph-name="arrange-bring-forward" d="M85.333 768h597.333v-597.333h-597.333v597.333zM938.667 512v-597.333h-597.333v170.667h85.333v-85.333h426.667v426.667h-85.333v85.333h170.667z" />
<glyph unicode="&#xe950;" glyph-name="arrange-bring-to-front" d="M85.333 768h384v-170.666h-85.333v85.333h-213.333v-213.333h85.333v-85.333h-170.667v384zM938.667 298.666v-384h-384v170.667h85.333v-85.333h213.333v213.333h-85.333v85.333h170.667zM341.333 512h341.333v-341.333h-341.333v341.333z" />
<glyph unicode="&#xe951;" glyph-name="arrange-send-backward" d="M85.333 768h597.333v-597.333h-597.333v597.333zM938.667 512v-597.333h-597.333v170.667h426.667v426.667h170.667zM170.667 682.666v-426.667h426.667v426.667h-426.667z" />
<glyph unicode="&#xe952;" glyph-name="arrange-send-to-back" d="M85.333 768h384v-384h-384v384zM384 682.666h-213.333v-213.333h213.333v213.333zM938.667 298.666v-384h-384v384h384zM640 0h213.333v213.333h-213.333v-213.333zM682.667 512v-128h-128v128h128zM469.333 170.666h-128v128h128v-128z" />
<glyph unicode="&#xe953;" glyph-name="arrow-all" d="M554.667 384h213.333l-64 64 60.561 60.563 167.228-167.229-167.228-167.228-60.561 60.561 64.444 64h-213.777v-213.333l64 64 60.561-60.565-167.228-167.223-167.227 167.228 60.56 60.561 64-64v213.333h-213.333l64-64-60.563-60.561-167.227 167.228 167.228 167.227 60.563-60.561-64-64h213.333v213.333l-64-64-60.563 60.564 167.229 167.227 167.228-167.227-60.561-60.564-64 64v-213.333z" />
<glyph unicode="&#xe954;" glyph-name="arrow-bottom-left" d="M810.667 579.839l-60.16 60.16-451.84-451.839v281.173h-85.333v-426.667h426.667v85.333h-281.173l451.84 451.839z" />
<glyph unicode="&#xe955;" glyph-name="arrow-bottom-right" d="M213.334 579.839l60.16 60.16 451.84-451.839v281.173h85.333v-426.667h-426.667v85.333h281.173l-451.84 451.839z" />
<glyph unicode="&#xe956;" glyph-name="arrow-compress-all" d="M831.684 721.359l60.339-60.34-191.684-191.686h152.994v-85.333h-298.667v298.667h85.333v-152.994l191.684 191.686zM892.028 21.644l-60.343-60.339-191.684 191.689v-152.994h-85.333v298.667h298.667v-85.333h-152.994l191.689-191.689zM192.314 721.359l191.686-191.686v152.993h85.333v-298.666h-298.667v85.333h152.994l-191.686 191.686 60.34 60.34zM131.974 21.644l191.686 191.689h-152.993v85.333h298.667v-298.667h-85.333v152.994l-191.686-191.689-60.34 60.339z" />
<glyph unicode="&#xe957;" glyph-name="arrow-compress" d="M832 721.502l-192-192v153.165h-85.333v-298.667h298.667v85.333h-153.165l192 192-60.169 60.169zM170.667 298.666v-85.333h153.165l-192-192 60.169-60.16 192 192v-153.173h85.333v298.667h-298.667z" />
<glyph unicode="&#xe958;" glyph-name="arrow-down-bold-box-outline" d="M512 128l-213.332 213.333h127.998v170.667h170.667v-170.667h128l-213.333-213.333zM213.333 725.333h597.333c47.13 0 85.333-38.205 85.333-85.333v-597.333c0-47.13-38.204-85.333-85.333-85.333h-597.333c-47.128 0-85.333 38.204-85.333 85.333v597.333c0 47.128 38.205 85.333 85.333 85.333zM213.333 639.999v-597.333h597.333v597.333h-597.333z" />
<glyph unicode="&#xe959;" glyph-name="arrow-down-bold-box" d="M213.333 725.333h597.333c47.13 0 85.333-38.205 85.333-85.333v-597.334c0-47.13-38.204-85.333-85.333-85.333h-597.333c-47.128 0-85.333 38.204-85.333 85.333v597.334c0 47.128 38.205 85.333 85.333 85.333zM512 128l213.333 213.333h-128v170.667h-170.667v-170.667h-127.998l213.332-213.333z" />
<glyph unicode="&#xe95a;" glyph-name="arrow-down-bold-circle-outline" d="M512 128l-213.332 213.333h127.998v170.667h170.667v-170.667h128l-213.333-213.333zM512 768c235.639 0 426.667-191.025 426.667-426.667 0-235.644-191.027-426.667-426.667-426.667-235.642 0-426.667 191.023-426.667 426.667 0 235.641 191.025 426.667 426.667 426.667zM512 682.666c-188.513 0-341.333-152.82-341.333-341.333 0-188.514 152.82-341.333 341.333-341.333s341.333 152.819 341.333 341.333c0 188.513-152.819 341.333-341.333 341.333z" />
<glyph unicode="&#xe95b;" glyph-name="arrow-down-bold-circle" d="M512 768c235.639 0 426.667-191.025 426.667-426.667 0-235.639-191.027-426.667-426.667-426.667-235.642 0-426.667 191.027-426.667 426.667 0 235.641 191.025 426.667 426.667 426.667zM512 128l213.333 213.333h-128v170.667h-170.667v-170.667h-127.998l213.332-213.333z" />
<glyph unicode="&#xe95c;" glyph-name="arrow-down-bold-hexagon-outline" d="M512 128l-213.333 213.333h128v170.667h170.667v-170.667h128l-213.333-213.333zM896 149.333c0-16.265-9.101-30.4-22.485-37.602l-337.348-189.568c-6.869-4.727-15.194-7.497-24.166-7.497s-17.297 2.769-24.166 7.497l-337.341 189.564c-13.389 7.198-22.492 21.342-22.492 37.606v384c0 16.266 9.103 30.406 22.492 37.605l337.341 189.563c6.869 4.73 15.194 7.499 24.166 7.499 8.969 0 17.293-2.769 24.166-7.498l337.348-189.567c13.385-7.2 22.485-21.338 22.485-37.601v-384zM512.038 676.227l-298.705-167.86v-334.070l298.705-167.859 298.628 167.859v334.073l-298.628 167.856z" />
<glyph unicode="&#xe95d;" glyph-name="arrow-down-bold" d="M384 682.666h256v-341.333h206.455l-334.455-334.455-334.457 334.455h206.457v341.333z" />
<glyph unicode="&#xe95e;" glyph-name="arrow-down-box" d="M128 640c0 47.104 38.144 85.333 85.333 85.333h597.333c47.083 0 85.333-38.229 85.333-85.333v-597.333c0-47.104-38.251-85.333-85.333-85.333h-597.333c-47.189 0-85.333 38.229-85.333 85.333v597.333zM469.333 597.333v-363.11l-149.554 149.555-60.34-60.343 252.561-252.557 252.561 252.557-60.339 60.343-149.555-149.555v363.11h-85.333z" />
<glyph unicode="&#xe95f;" glyph-name="arrow-down-drop-circle-outline" d="M512 768c-235.642 0-426.667-191.027-426.667-426.667s191.025-426.667 426.667-426.667c235.639 0 426.667 191.027 426.667 426.667s-191.027 426.667-426.667 426.667zM512 682.666c188.514 0 341.333-152.819 341.333-341.333s-152.819-341.333-341.333-341.333c-188.513 0-341.333 152.819-341.333 341.333s152.82 341.333 341.333 341.333zM298.667 426.666l213.333-213.333 213.333 213.333h-426.667z" />
<glyph unicode="&#xe960;" glyph-name="arrow-down-drop-circle" d="M512 768c235.639 0 426.667-191.027 426.667-426.667 0-235.644-191.027-426.667-426.667-426.667-235.642 0-426.667 191.023-426.667 426.667 0 235.639 191.025 426.667 426.667 426.667zM298.667 426.666l213.333-213.333 213.333 213.333h-426.667z" />
<glyph unicode="&#xe961;" glyph-name="arrow-down-drop" d="M298.667 426.666l213.333-213.333 213.333 213.333h-426.667z" />
<glyph unicode="&#xe962;" glyph-name="arrow-down-thick" d="M426.667 682.666h170.667v-384.444l149.555 149.554 103.006-103.005-337.894-337.894-337.895 337.894 103.007 103.005 149.555-149.554v384.444z" />
<glyph unicode="&#xe963;" glyph-name="arrow-down" d="M469.333 682.666h85.333v-512.444l234.889 234.889 60.339-60.339-337.894-337.894-337.895 337.894 60.34 60.339 234.889-234.889v512.444z" />
<glyph unicode="&#xe964;" glyph-name="arrow-expand-all" d="M405.019 294.694l60.338-60.339-191.684-191.689h152.994v-85.333h-298.667v298.667h85.333v-152.994l191.686 191.689zM465.361 448.313l-60.341-60.341-191.686 191.688v-152.993h-85.333v298.666h298.667v-85.333h-152.994l191.688-191.687zM618.982 294.694l191.684-191.689v152.994h85.333v-298.667h-298.667v85.333h152.994l-191.684 191.689 60.339 60.339zM558.639 448.313l191.689 191.686h-152.994v85.333h298.667v-298.667h-85.333v152.994l-191.689-191.688-60.339 60.341z" />
<glyph unicode="&#xe965;" glyph-name="arrow-expand" d="M426.675-42.658v85.333h-153.173l192 192-60.169 60.16-192-192v153.165h-85.333v-298.667l298.675 0.009zM618.667 387.823l192 192v-153.165h85.333v298.675h-298.667v-85.333h153.173l-192-192 60.16-60.177z" />
<glyph unicode="&#xe966;" glyph-name="arrow-left-bold-box-outline" d="M298.667 341.333l213.333 213.331v-127.998h170.667v-170.667h-170.667v-128l-213.333 213.333zM896 639.999v-597.333c0-47.13-38.204-85.333-85.333-85.333h-597.334c-47.128 0-85.333 38.204-85.333 85.333v597.333c0 47.128 38.205 85.333 85.333 85.333h597.334c47.13 0 85.333-38.205 85.333-85.333zM810.667 639.999h-597.334v-597.333h597.334v597.333z" />
<glyph unicode="&#xe967;" glyph-name="arrow-left-bold-box" d="M896 640v-597.333c0-47.13-38.204-85.333-85.333-85.333h-597.334c-47.128 0-85.333 38.204-85.333 85.333v597.333c0 47.128 38.205 85.333 85.333 85.333h597.334c47.13 0 85.333-38.205 85.333-85.333zM298.667 341.333l213.333-213.333v128h170.667v170.667h-170.667v127.998l-213.333-213.332z" />
<glyph unicode="&#xe968;" glyph-name="arrow-left-bold-circle-outline" d="M298.667 341.333l213.333 213.331v-127.998h170.667v-170.667h-170.667v-128l-213.333 213.333zM938.667 341.333c0-235.644-191.027-426.667-426.667-426.667-235.642 0-426.667 191.023-426.667 426.667 0 235.641 191.025 426.666 426.667 426.666 235.639 0 426.667-191.025 426.667-426.666zM853.333 341.333c0 188.513-152.819 341.333-341.333 341.333s-341.333-152.82-341.333-341.333c0-188.514 152.82-341.333 341.333-341.333s341.333 152.819 341.333 341.333z" />
<glyph unicode="&#xe969;" glyph-name="arrow-left-bold-circle" d="M938.667 341.333c0-235.644-191.027-426.667-426.667-426.667-235.642 0-426.667 191.023-426.667 426.667 0 235.641 191.025 426.666 426.667 426.666 235.639 0 426.667-191.025 426.667-426.666zM298.667 341.333l213.333-213.333v128h170.667v170.667h-170.667v127.998l-213.333-213.331z" />
<glyph unicode="&#xe96a;" glyph-name="arrow-left-bold-hexagon-outline" d="M298.667 341.333l213.333 213.332v-127.998h170.667v-170.667h-170.667v-128l-213.333 213.333zM896 149.333c0-16.265-9.101-30.4-22.485-37.602l-337.348-189.568c-6.869-4.727-15.194-7.497-24.166-7.497s-17.297 2.769-24.166 7.497l-337.341 189.564c-13.389 7.198-22.492 21.342-22.492 37.606v384c0 16.266 9.103 30.406 22.492 37.605l337.341 189.563c6.869 4.73 15.194 7.499 24.166 7.499 8.969 0 17.293-2.769 24.166-7.498l337.348-189.567c13.385-7.2 22.485-21.338 22.485-37.601v-384zM512.038 676.227l-298.705-167.86v-334.070l298.705-167.859 298.628 167.859v334.073l-298.628 167.856z" />
<glyph unicode="&#xe96b;" glyph-name="arrow-left-bold" d="M853.333 469.333v-256h-341.333v-206.455l-334.457 334.455 334.457 334.457v-206.457h341.333z" />
<glyph unicode="&#xe96c;" glyph-name="arrow-left-box" d="M810.667 725.333c47.104 0 85.333-38.144 85.333-85.333v-597.333c0-47.083-38.229-85.333-85.333-85.333h-597.333c-47.104 0-85.333 38.251-85.333 85.333v597.333c0 47.19 38.229 85.333 85.333 85.333h597.333zM768 384h-363.111l149.556 149.554-60.343 60.34-252.559-252.561 252.559-252.561 60.343 60.339-149.556 149.555h363.111v85.333z" />
<glyph unicode="&#xe96d;" glyph-name="arrow-left-drop-circle-outline" d="M938.667 341.333c0 235.642-191.027 426.667-426.667 426.667-235.642 0-426.667-191.025-426.667-426.667 0-235.639 191.025-426.667 426.667-426.667 235.639 0 426.667 191.027 426.667 426.667zM853.333 341.333c0-188.514-152.819-341.333-341.333-341.333s-341.333 152.819-341.333 341.333c0 188.513 152.82 341.333 341.333 341.333s341.333-152.82 341.333-341.333zM597.333 554.666l-213.334-213.333 213.334-213.333v426.667z" />
<glyph unicode="&#xe96e;" glyph-name="arrow-left-drop-circle" d="M938.667 341.333c0-235.639-191.027-426.667-426.667-426.667-235.642 0-426.667 191.027-426.667 426.667 0 235.642 191.025 426.667 426.667 426.667 235.639 0 426.667-191.025 426.667-426.667zM597.333 554.666l-213.334-213.333 213.334-213.333v426.667z" />
<glyph unicode="&#xe96f;" glyph-name="arrow-left-thick" d="M853.333 426.666v-170.667h-384.444l149.555-149.555-103.006-103.006-337.896 337.894 337.896 337.895 103.006-103.007-149.555-149.555h384.444z" />
<glyph unicode="&#xe970;" glyph-name="arrow-left" d="M853.333 384v-85.333h-512.445l234.889-234.889-60.339-60.339-337.896 337.894 337.896 337.895 60.339-60.34-234.889-234.889h512.445z" />
<glyph unicode="&#xe971;" glyph-name="arrow-right-bold-box-outline" d="M725.333 341.333l-213.333-213.333v128h-170.668v170.668h170.668v128l213.333-213.334zM128 42.666v597.333c0 47.128 38.205 85.333 85.333 85.333h597.334c47.13 0 85.333-38.205 85.333-85.333v-597.333c0-47.13-38.204-85.333-85.333-85.333h-597.334c-47.128 0-85.333 38.204-85.333 85.333zM213.333 42.666h597.334v597.332h-597.334v-597.332z" />
<glyph unicode="&#xe972;" glyph-name="arrow-right-bold-box" d="M128 42.666v597.333c0 47.128 38.205 85.333 85.333 85.333h597.334c47.13 0 85.333-38.205 85.333-85.333v-597.333c0-47.13-38.204-85.333-85.333-85.333h-597.334c-47.128 0-85.333 38.204-85.333 85.333zM725.333 341.333l-213.333 213.335v-128h-170.667v-170.668h170.667v-128l213.333 213.333z" />
<glyph unicode="&#xe973;" glyph-name="arrow-right-bold-circle-outline" d="M725.333 341.333l-213.333-213.333v128h-170.668v170.668h170.668v128l213.333-213.335zM85.333 341.333c0 235.641 191.025 426.666 426.667 426.666 235.639 0 426.667-191.025 426.667-426.666 0-235.639-191.027-426.667-426.667-426.667-235.642 0-426.667 191.027-426.667 426.667zM170.667 341.333c0-188.514 152.82-341.333 341.333-341.333s341.333 152.819 341.333 341.333c0 188.513-152.819 341.333-341.333 341.333s-341.333-152.82-341.333-341.333z" />
<glyph unicode="&#xe974;" glyph-name="arrow-right-bold-circle" d="M85.333 341.333c0 235.641 191.025 426.667 426.667 426.667 235.639 0 426.667-191.025 426.667-426.667 0-235.639-191.027-426.667-426.667-426.667-235.642 0-426.667 191.027-426.667 426.667zM725.333 341.333l-213.333 213.335v-128h-170.667v-170.668h170.667v-128l213.333 213.333z" />
<glyph unicode="&#xe975;" glyph-name="arrow-right-bold-hexagon-outline" d="M725.333 341.333l-213.333-213.333v128h-170.667v170.667h170.667v128l213.333-213.333zM896 149.333c0-16.265-9.101-30.4-22.485-37.602l-337.348-189.568c-6.869-4.727-15.194-7.497-24.166-7.497s-17.297 2.769-24.166 7.497l-337.341 189.564c-13.389 7.198-22.492 21.342-22.492 37.606v384c0 16.266 9.103 30.406 22.492 37.605l337.341 189.563c6.869 4.73 15.194 7.499 24.166 7.499 8.969 0 17.293-2.769 24.166-7.498l337.348-189.567c13.385-7.2 22.485-21.338 22.485-37.601v-384zM512.038 676.227l-298.705-167.86v-334.070l298.705-167.859 298.628 167.859v334.073l-298.628 167.856z" />
<glyph unicode="&#xe976;" glyph-name="arrow-right-bold" d="M170.667 213.333v256h341.333v206.458l334.455-334.457-334.455-334.455v206.455h-341.333z" />
<glyph unicode="&#xe977;" glyph-name="arrow-right-box" d="M213.333-42.667c-47.104 0-85.333 38.144-85.333 85.333v597.333c0 47.083 38.229 85.333 85.333 85.333h597.333c47.104 0 85.333-38.25 85.333-85.333v-597.333c0-47.189-38.229-85.333-85.333-85.333h-597.333zM256 298.666h363.11l-149.555-149.555 60.339-60.339 252.561 252.561-252.561 252.561-60.339-60.34 149.555-149.555h-363.11v-85.333z" />
<glyph unicode="&#xe978;" glyph-name="arrow-right-drop-circle-outline" d="M85.333 341.333c0-235.644 191.027-426.667 426.667-426.667s426.667 191.023 426.667 426.667c0 235.639-191.027 426.667-426.667 426.667s-426.667-191.027-426.667-426.667zM170.667 341.333c0 188.514 152.819 341.333 341.333 341.333s341.333-152.819 341.333-341.333c0-188.514-152.819-341.333-341.333-341.333s-341.333 152.819-341.333 341.333zM426.667 128l213.333 213.333-213.333 213.333v-426.666z" />
<glyph unicode="&#xe979;" glyph-name="arrow-right-drop-circle" d="M85.333 341.333c0 235.641 191.027 426.668 426.667 426.668s426.667-191.027 426.667-426.668c0-235.639-191.027-426.667-426.667-426.667s-426.667 191.027-426.667 426.667zM426.666 128l213.334 213.333-213.334 213.334v-426.667z" />
<glyph unicode="&#xe97a;" glyph-name="arrow-right-thick" d="M170.667 426.666v-170.667h384.444l-149.554-149.555 103.005-103.006 337.894 337.894-337.894 337.895-103.005-103.007 149.554-149.555h-384.444z" />
<glyph unicode="&#xe97b;" glyph-name="arrow-right" d="M170.667 384v-85.333h512.444l-234.889-234.889 60.339-60.339 337.894 337.894-337.894 337.895-60.339-60.34 234.889-234.889h-512.444z" />
<glyph unicode="&#xe97c;" glyph-name="arrow-top-left" d="M810.667 102.826l-60.16-60.16-451.84 451.84v-281.173h-85.333v426.667h426.666v-85.333h-281.173l451.84-451.84z" />
<glyph unicode="&#xe97d;" glyph-name="arrow-top-right" d="M213.334 102.826l451.84 451.84h-281.173v85.333h426.667v-426.667h-85.333v281.173l-451.84-451.84-60.16 60.16z" />
<glyph unicode="&#xe97e;" glyph-name="arrow-up-bold-box-outline" d="M512 554.666l213.333-213.333h-128v-170.667h-170.668v170.667h-128l213.335 213.333zM810.667-42.667h-597.334c-47.128 0-85.333 38.204-85.333 85.333v597.333c0 47.128 38.205 85.333 85.333 85.333h597.334c47.13 0 85.333-38.205 85.333-85.333v-597.333c0-47.13-38.204-85.333-85.333-85.333zM810.667 42.666v597.333h-597.333v-597.333h597.333z" />
<glyph unicode="&#xe97f;" glyph-name="arrow-up-bold-box" d="M810.667-42.667h-597.333c-47.128 0-85.333 38.204-85.333 85.333v597.333c0 47.128 38.205 85.333 85.333 85.333h597.333c47.13 0 85.333-38.205 85.333-85.333v-597.333c0-47.13-38.204-85.333-85.333-85.333zM512 554.666l-213.335-213.333h128v-170.667h170.668v170.667h128l-213.333 213.333z" />
<glyph unicode="&#xe980;" glyph-name="arrow-up-bold-circle-outline" d="M512 554.665l213.333-213.332h-128v-170.667h-170.667v170.667h-127.998l213.332 213.332zM512-85.334c-235.642 0-426.667 191.023-426.667 426.667 0 235.641 191.025 426.666 426.667 426.666 235.639 0 426.667-191.025 426.667-426.666 0-235.644-191.027-426.667-426.667-426.667zM512 0c188.514 0 341.333 152.819 341.333 341.333s-152.819 341.333-341.333 341.333c-188.514 0-341.333-152.82-341.333-341.333s152.82-341.333 341.333-341.333z" />
<glyph unicode="&#xe981;" glyph-name="arrow-up-bold-circle" d="M512-85.334c-235.642 0-426.667 191.027-426.667 426.667 0 235.642 191.025 426.667 426.667 426.667 235.639 0 426.667-191.025 426.667-426.667 0-235.639-191.027-426.667-426.667-426.667zM512 554.666l-213.332-213.333h127.998v-170.667h170.667v170.667h128l-213.333 213.333z" />
<glyph unicode="&#xe982;" glyph-name="arrow-up-bold-hexagon-outline" d="M512 554.666l213.333-213.333h-128v-170.667h-170.667v170.667h-128l213.333 213.333zM896 149.333c0-16.265-9.101-30.4-22.485-37.602l-337.348-189.568c-6.869-4.727-15.194-7.497-24.166-7.497s-17.297 2.769-24.166 7.497l-337.341 189.564c-13.389 7.198-22.492 21.342-22.492 37.606v384c0 16.266 9.103 30.406 22.492 37.605l337.341 189.563c6.869 4.73 15.194 7.499 24.166 7.499 8.969 0 17.293-2.769 24.166-7.498l337.348-189.567c13.385-7.2 22.485-21.338 22.485-37.601v-384zM512.038 676.227l-298.705-167.86v-334.070l298.705-167.859 298.628 167.859v334.073l-298.628 167.856z" />
<glyph unicode="&#xe983;" glyph-name="arrow-up-bold" d="M640 0h-256v341.333h-206.458l334.458 334.457 334.455-334.457h-206.455v-341.333z" />
<glyph unicode="&#xe984;" glyph-name="arrow-up-box" d="M896 42.666c0-47.104-38.144-85.333-85.333-85.333h-597.333c-47.084 0-85.333 38.229-85.333 85.333v597.333c0 47.104 38.25 85.333 85.333 85.333h597.333c47.189 0 85.333-38.229 85.333-85.333v-597.333zM554.667 85.333v363.11l149.555-149.555 60.339 60.339-252.561 252.562-252.562-252.562 60.339-60.339 149.556 149.556v-363.111h85.333z" />
<glyph unicode="&#xe985;" glyph-name="arrow-up-drop-circle-outline" d="M512-85.334c235.639 0 426.667 191.027 426.667 426.667 0 235.642-191.027 426.667-426.667 426.667s-426.667-191.025-426.667-426.667c0-235.639 191.027-426.667 426.667-426.667zM512 0c-188.514 0-341.333 152.819-341.333 341.333s152.819 341.333 341.333 341.333c188.514 0 341.333-152.82 341.333-341.333s-152.819-341.333-341.333-341.333zM725.333 256l-213.333 213.334-213.333-213.334h426.666z" />
<glyph unicode="&#xe986;" glyph-name="arrow-up-drop-circle" d="M512-85.334c-235.639 0-426.667 191.027-426.667 426.667s191.027 426.666 426.667 426.666 426.667-191.025 426.667-426.666c0-235.639-191.027-426.667-426.667-426.667zM725.333 256l-213.333 213.334-213.333-213.334h426.666z" />
<glyph unicode="&#xe987;" glyph-name="arrow-up-thick" d="M597.333 0h-170.667l-0.001 384.444-149.555-149.555-103.006 103.006 337.895 337.896 337.894-337.896-103.006-103.006-149.555 149.111v-384z" />
<glyph unicode="&#xe988;" glyph-name="arrow-up" d="M554.667 0h-85.333v512.445l-234.889-234.889-60.34 60.339 337.895 337.896 337.894-337.896-60.339-60.339-234.889 234.889v-512.445z" />
<glyph unicode="&#xe989;" glyph-name="assistant" d="M810.615 767.893h-597.282c-46.88 0-85.44-38.293-85.44-85.173v-597.28c0-47.095 38.56-85.44 85.44-85.44h170.613l128.16-127.893 127.893 127.893h170.615c46.878 0 85.44 38.345 85.44 85.44v597.28c0 46.88-38.562 85.173-85.44 85.173zM592.265 303.735l-80.158-175.842-80.213 175.842-175.84 80.213 175.84 80.211 80.213 175.84 80.158-175.84 175.629-80.211z" />
<glyph unicode="&#xe98a;" glyph-name="asterisk" d="M426.667 768h170.667l-33.728-337.285 275.234 197.852 85.333-147.802-308.962-139.433 308.962-139.435-85.333-147.802-275.234 197.854 33.728-337.284h-170.667l33.728 337.284-275.233-197.85-85.333 147.802 308.962 139.43-308.96 139.433 85.333 147.802 275.232-197.852-33.728 337.284z" />
<glyph unicode="&#xe98b;" glyph-name="at" d="M743.364 213.333c15.795 38.797 24.636 82.193 24.636 128 0 164.949-114.615 298.666-256 298.666s-256-133.717-256-298.666c0-164.949 114.615-298.667 256-298.667 65.566 0 128 0 170.667 33.382v-99.345c-42.667-19.371-108.497-19.371-170.667-19.371-188.513 0-341.333 171.921-341.333 384 0 212.077 152.82 384 341.333 384s341.333-171.923 341.333-384c0-78.938-21.171-152.316-57.481-213.333h-198.519v64.030c-27.106-39.514-64.883-64.030-106.667-64.030-82.475 0-149.333 95.514-149.333 213.333s66.859 213.333 149.333 213.333c41.783 0 79.561-24.517 106.667-64.031v21.364h85.333v-298.667h60.698zM512 469.333c-47.13 0-85.333-57.306-85.333-128s38.204-128 85.333-128c47.13 0 85.333 57.306 85.333 128s-38.204 128-85.333 128z" />
<glyph unicode="&#xe98c;" glyph-name="atom" d="M512 384c23.565 0 42.667-19.102 42.667-42.667s-19.102-42.667-42.667-42.667c-23.565 0-42.667 19.102-42.667 42.667s19.102 42.667 42.667 42.667zM180.131 673.202c61.043 61.043 193.385 33.85 331.869-57.145 138.483 90.995 270.827 118.188 331.87 57.145s33.847-193.385-57.148-331.869c90.995-138.483 118.191-270.827 57.148-331.87s-193.387-33.847-331.87 57.148c-138.484-90.995-270.826-118.191-331.869-57.148s-33.85 193.387 57.145 331.87c-90.995 138.484-118.188 270.826-57.145 331.869zM662.848 492.182c26.202-26.201 50.313-53.072 72.154-80.129 58.897 91.107 80.478 168.858 48.529 200.809-31.953 31.951-109.705 10.368-200.811-48.527 27.059-21.84 53.931-45.952 80.128-72.152zM361.151 190.485c-26.201 26.197-50.312 53.069-72.153 80.128-58.895-91.106-80.478-168.858-48.527-200.811 31.951-31.949 109.702-10.368 200.809 48.529-27.057 21.841-53.929 45.952-80.129 72.154zM240.471 612.862c-31.951-31.951-10.368-109.701 48.527-200.809 21.841 27.057 45.952 53.929 72.152 80.129s53.072 50.312 80.13 72.152c-91.108 58.895-168.858 80.478-200.809 48.527zM421.49 250.824c30.017-30.016 60.519-57.271 90.51-81.267 29.99 23.996 60.493 51.251 90.509 81.267s57.271 60.518 81.267 90.509c-23.996 29.99-51.251 60.493-81.267 90.509s-60.518 57.271-90.509 81.267c-29.99-23.996-60.493-51.251-90.51-81.267s-57.271-60.519-81.267-90.51c23.996-29.99 51.251-60.493 81.267-90.509zM783.531 69.802c31.949 31.953 10.368 109.705-48.529 200.811-21.841-27.059-45.952-53.931-72.154-80.128-26.197-26.202-53.069-50.313-80.128-72.154 91.106-58.897 168.858-80.478 200.811-48.529z" />
<glyph unicode="&#xe98d;" glyph-name="attachment" d="M320 85.333c-129.707 0-234.667 104.96-234.667 234.667s104.96 234.667 234.667 234.667h448c94.293 0 170.667-76.373 170.667-170.667s-76.373-170.667-170.667-170.667h-362.667c-58.88 0-106.667 47.787-106.667 106.667s47.787 106.667 106.667 106.667h320v-64h-320c-23.467 0-42.667-19.2-42.667-42.667s19.2-42.667 42.667-42.667h362.667c58.88 0 106.667 47.787 106.667 106.667s-47.787 106.667-106.667 106.667h-448c-94.293 0-170.667-76.373-170.667-170.667s76.373-170.667 170.667-170.667h405.333v-64h-405.333z" />
<glyph unicode="&#xe98e;" glyph-name="audiobook" d="M767.974-85.248h-512.001c-47.084 0-85.333 38.225-85.333 85.333v682.665c0 47.104 38.25 85.333 85.333 85.333h42.667v-298.667l106.667 64 106.668-64v298.667h256c47.147 0 85.333-38.229 85.333-85.333v-682.665c0-47.108-38.187-85.333-85.333-85.333zM554.667 213.333c-47.13 0-85.333-38.204-85.333-85.333s38.204-85.333 85.333-85.333c47.13 0 85.333 38.204 85.333 85.333v213.333h128v85.333h-170.667v-224.751c-12.553 7.262-27.123 11.418-42.667 11.418z" />
<glyph unicode="&#xe98f;" glyph-name="auto-fix" d="M319.973 614.478l-106.667-59.732 59.733 106.667-59.733 106.667 106.667-59.733 106.667 59.733-59.733-106.667 59.733-106.667-106.667 59.732zM831.974 196.352l106.667 59.733-59.733-106.667 59.733-106.667-106.667 59.733-106.667-59.733 59.733 106.667-59.733 106.667 106.667-59.733zM938.641 768.082l-59.733-106.667 59.733-106.667-106.667 59.732-106.667-59.732 59.733 106.667-59.733 106.667 106.667-59.732 106.667 59.732zM569.276 308.207l103.893 103.893-90.496 90.54-103.893-103.938 90.496-90.496zM613.137 542.235l99.669-99.67c16.683-16.641 16.683-43.649 0-60.332l-497.666-497.664c-16.683-16.64-43.691-16.64-60.331 0l-99.669 99.669c-16.683 16.683-16.683 43.691 0 60.331l497.666 497.666c16.683 16.682 43.691 16.682 60.331 0z" />
<glyph unicode="&#xe990;" glyph-name="auto-upload" d="M228.241 313.685l49.066 155.735 49.066-155.735zM234.641 554.753l-136.534-384.002h81.068l29.866 85.333h136.534l29.866-85.333h81.068l-136.534 384.002zM469.308 0.085h469.333v85.333h-469.333zM597.308 170.752h213.333v213.333h128l-234.667 234.668-234.667-234.668h128v-213.333z" />
<glyph unicode="&#xe991;" glyph-name="autorenew" d="M512.107 597.28v-127.893l170.611 170.613-170.611 170.636v-127.916c-188.747 0-341.493-152.693-341.493-341.493 0-66.825 19.573-129.118 52.907-181.653l62.293 62.293c-19.147 35.413-29.76 76.48-29.76 119.36 0 141.28 114.773 256.053 256.053 256.053zM800.427 523.146l-62.293-62.293c18.722-35.842 29.76-76.482 29.76-119.627 0-141.013-114.773-255.787-255.787-255.787v127.893l-170.88-170.615 170.88-170.611v127.893c188.535 0 341.227 152.695 341.227 341.227 0 67.093-19.571 129.387-52.907 181.92z" />
<glyph unicode="&#xe992;" glyph-name="av-timer" d="M469.389 127.893c0-23.305 19.145-42.453 42.718-42.453 23.305 0 42.453 19.149 42.453 42.453 0 23.573-19.149 42.722-42.453 42.722-23.573 0-42.718-19.149-42.718-42.722zM469.389 725.427v-170.867h85.171v82.133c144.798-21.067 256.055-144.8 256.055-295.467 0-164.962-133.551-298.509-298.509-298.509-165.227 0-298.773 133.547-298.773 298.509 0 71.68 25.227 137.547 67.52 188.8l231.253-231.253 59.998 60.002-290.025 290.185v-0.853c-93.547-69.973-154.187-180.8-154.187-306.88 0-211.84 171.68-383.945 384.213-383.945 211.84 0 383.949 172.105 383.949 383.945 0 212.107-172.109 384.201-383.949 384.201zM767.893 341.226c0 23.573-19.149 42.722-42.453 42.722-23.573 0-42.722-19.149-42.722-42.722 0-23.305 19.149-42.453 42.722-42.453 23.305 0 42.453 19.149 42.453 42.453zM256.053 341.226c0-23.305 19.147-42.453 42.72-42.453 23.307 0 42.453 19.149 42.453 42.453 0 23.573-19.147 42.722-42.453 42.722-23.573 0-42.72-19.149-42.72-42.722z" />
<glyph unicode="&#xe993;" glyph-name="baby-buggy" d="M554.667 768v-341.333h341.333c0 188.587-152.747 341.333-341.333 341.333zM824.32 175.36c44.8 57.6 71.68 130.133 71.68 208.64h-621.227l-40.533 85.333h-148.907v-85.333h94.72c0 0 80.64-173.653 90.453-188.587-46.933-25.173-78.507-74.667-78.507-131.413 0-82.347 66.987-149.333 149.333-149.333 75.093 0 137.387 55.467 147.627 128h88.747c10.24-72.533 72.533-128 147.627-128 82.347 0 149.333 66.987 149.333 149.333 0 44.373-19.627 84.053-50.347 111.36zM341.333 0c-35.413 0-64 28.587-64 64s28.587 64 64 64c35.413 0 64-28.587 64-64s-28.587-64-64-64zM725.333 0c-35.413 0-64 28.587-64 64s28.587 64 64 64c35.413 0 64-28.587 64-64s-28.587-64-64-64z" />
<glyph unicode="&#xe994;" glyph-name="baby" d="M789.333 682.666c58.91 0 106.667-47.756 106.667-106.667s-47.757-106.667-106.667-106.667c-58.91 0-106.667 47.756-106.667 106.667s47.757 106.667 106.667 106.667zM192 0c-35.346 0-64 28.655-64 64s28.654 64 64 64h298.667c35.345 0 64-28.655 64-64s-28.655-64-64-64h-298.667zM686.519 42.803l-59.87 170.53h-157.316l-181.333 181.333c0 0 96 106.667 245.333 106.666 128 0 142.869-42.733 152.060-68.913l121.899-347.215c11.712-33.348-5.833-69.879-39.185-81.587-33.348-11.708-69.879 5.837-81.587 39.185z" />
<glyph unicode="&#xe995;" glyph-name="backburger" d="M213.718 298.666l170.888-170.889-60.34-60.339-273.895 273.894 273.895 273.894 60.34-60.34-170.888-170.888h682.282v-85.333h-682.282zM896 597.333v-85.333h-426.667v85.333h426.667zM896 170.666v-85.333h-426.667v85.333h426.667z" />
<glyph unicode="&#xe996;" glyph-name="backspace" d="M938.773 725.427h-640c-29.6 0-52.533-15.027-67.947-37.694l-230.827-346.507 230.827-346.027c15.413-22.507 38.347-37.918 67.947-37.918h640c46.827 0 85.171 38.558 85.171 85.436v597.282c0 46.88-38.345 85.427-85.171 85.427zM810.615 188.104l-60.215-60.211-153.122 153.331-153.118-153.331-60.213 60.211 153.12 153.122-153.12 153.333 60.213 60 153.118-153.122 153.122 153.122 60.215-60-153.122-153.333z" />
<glyph unicode="&#xe997;" glyph-name="backup-restore" d="M512 725.333c-212.053 0-384-171.947-384-384h-128l170.667-170.667 170.667 170.667h-128c0 165.12 133.547 298.667 298.667 298.667s298.667-133.547 298.667-298.667c0-165.12-133.547-298.667-298.667-298.667-64.427 0-124.16 20.907-173.227 55.467l-60.587-61.44c64.853-49.493 145.92-79.36 233.813-79.36 212.053 0 384 171.947 384 384s-171.947 384-384 384zM597.333 341.333c0 46.933-38.4 85.333-85.333 85.333s-85.333-38.4-85.333-85.333c0-46.933 38.4-85.333 85.333-85.333s85.333 38.4 85.333 85.333z" />
<glyph unicode="&#xe998;" glyph-name="bandcamp" d="M938.667 597.333l-277.696-512h-575.637l277.695 512h575.639z" />
<glyph unicode="&#xe999;" glyph-name="bank" d="M490.667 810.666l-405.333-213.333v-85.333h810.667v85.333zM682.667 426.666v-298.667h128v298.667zM85.333-85.334h810.667v128h-810.667zM426.667 426.666v-298.667h128v298.667zM170.667 426.666v-298.667h128v298.667h-128z" />
<glyph unicode="&#xe99a;" glyph-name="barcode-scan" d="M170.667 597.333h85.333v-512h-85.333v512zM298.667 597.333h42.666v-512h-42.666v512zM384 597.333h128v-512h-128v512zM554.667 597.333h42.667v-512h-42.667v512zM682.667 597.333h85.333v-512h-85.333v512zM810.667 597.333h42.667v-512h-42.667v512zM85.334 682.666v-170.667h-85.334v170.667c0 46.933 38.4 85.333 85.334 85.333h170.667v-85.333h-170.667zM938.667 768c46.933 0 85.333-38.4 85.333-85.333v-170.667h-85.333v170.667h-170.667v85.333h170.667zM85.334 170.666v-170.667h170.666v-85.333h-170.666c-46.933 0-85.334 38.4-85.334 85.333v170.667h85.334zM938.667 0v170.667h85.333v-170.667c0-46.933-38.4-85.333-85.333-85.333h-170.667v85.333h170.667z" />
<glyph unicode="&#xe99b;" glyph-name="barcode" d="M85.333 597.333h85.333v-512h-85.333v512zM213.333 597.333h42.667v-512h-42.667v512zM298.667 597.333h128v-512h-128v512zM469.333 597.333h42.667v-512h-42.667v512zM597.333 597.333h85.333v-512h-85.333v512zM725.333 597.333h128v-512h-128v512zM896 597.333h42.667v-512h-42.667v512z" />
<glyph unicode="&#xe99c;" glyph-name="barley" d="M312.889 71.112c-35.555 49.775-35.555 106.667-35.555 163.554 71.111-42.667 142.222-85.333 177.779-135.113l14.221-23.876v97.152c-63.667 38.455-124.451 77.491-156.445 122.283-35.555 49.775-35.555 106.667-35.555 163.554 71.111-42.667 142.222-85.333 177.779-135.113l14.221-23.876v97.152c-63.667 38.456-124.451 77.489-156.445 122.281-35.555 49.777-35.555 106.667-35.555 163.555 71.111-42.667 142.222-85.333 177.779-135.111 4.484-6.282 8.405-12.678 11.831-19.173-7.518 25.347-12.301 50.823-12.544 76.517-0.61 64.711 27.58 130.795 55.765 196.879 29.414-63.338 58.825-126.676 59.435-191.387 0.252-26.8-4.433-53.835-12.015-81.009 3.298 6.151 7.049 12.213 11.302 18.173 35.558 49.778 106.667 92.445 177.779 135.111 0-56.889 0-113.778-35.554-163.555-31.996-44.792-92.779-83.825-156.446-122.281v-97.152l14.221 23.876c35.558 49.779 106.667 92.446 177.779 135.113 0-56.887 0-113.779-35.554-163.554-31.996-44.791-92.779-83.827-156.446-122.283v-97.152l14.221 23.876c35.558 49.779 106.667 92.446 177.779 135.113 0-56.887 0-113.779-35.554-163.554-31.996-44.791-92.779-83.827-156.446-122.283v-76.83h-85.333v76.83c-63.667 38.455-124.451 77.491-156.445 122.283z" />
<glyph unicode="&#xe99d;" glyph-name="barrel" d="M768 42.666h42.667v-85.333h-597.333v85.333h42.667v256h-42.667v85.333h42.667v256h-42.667v85.333h597.333v-85.333h-42.667v-256h42.667v-85.333h-42.667v-256zM384 298.666c0-70.694 57.306-128 128-128s128 57.306 128 128c0 85.333-128 229.333-128 229.333s-128-144-128-229.333z" />
<glyph unicode="&#xe99e;" glyph-name="basecamp" d="M144.547 186.035c0.721 4.019 1.565 8.013 2.494 11.985 1.765 7.458 3.908 14.831 6.403 22.101 9.551 27.955 24.005 53.879 39.503 78.916 7.702 12.412 15.584 24.713 23.427 37.030 8.005 12.587 16.172 25.097 25.362 36.851 14.92 19.081 33.253 39.65 57.031 47.334 33.415 10.786 58.407-23.996 77.736-45.47 11.002-12.186 22.848-25.015 37.996-31.974 6.98-3.204 14.587-4.855 22.271-4.378 11.191 0.713 21.12 8.405 29.466 15.313 22.861 18.927 41.451 42.854 59.187 66.423 19.443 25.797 38.221 52.135 60.51 75.642 9.105 9.629 18.876 22.401 31.966 26.662 5.879 1.94 12.425 1.343 18.112-1.274 3.132-1.436 5.978-3.45 8.444-5.844 2.752-2.709 6.071-4.849 9.199-7.197 23.902-18.071 46.003-38.48 66.867-59.941 18.116-18.668 35.379-38.203 51.883-58.367 16.030-19.695 31.488-39.757 44.86-61.508 16.124-26.487 29.786-54.349 44.864-81.459 13.751-24.742 27.695-53.342 13.943-81.242-0.759-1.472-1.519-2.944-2.372-4.352-24.375-41.207-68.288-66.876-111.731-83.678-52.258-20.211-108.501-29.841-164.177-33.732-57.57-4.041-115.806-3.853-173.304 1.536-51.938 4.873-104.236 14.127-153.101 32.994-40.832 15.774-80.212 39.087-107.528 74.078-6.374 8.171-12.017 16.896-16.835 26.086-0.57 1.092-1.139 2.21-1.708 3.332-0.786 1.63-1.091 2.295-0.768 4.13zM88.919 148.339c6.004-8.853 12.492-17.378 19.406-25.545 13.819-16.286 29.383-31.049 46.237-44.147 35.852-27.831 77.196-47.812 120.17-61.871 49.7-16.294 101.676-24.981 153.679-29.308 60.305-5.018 121.481-4.954 181.615 1.374 55.77 5.862 111.347 17.451 163.516 38.204 46.281 18.377 88.777 44.629 125.952 77.815 9.583 8.614 18.97 17.801 26.56 28.258 6.541 8.828 11.665 18.59 12.612 29.666 1.045 12.988-1.041 26.197-3.605 38.865-2.842 14.054-6.635 27.883-10.146 41.758-1.327 5.056-2.56 10.112-3.699 15.189-13.658 60.122-34.428 118.673-62.788 173.437-23.902 46.4-53.495 90.206-87.829 129.529-32.055 36.73-69.427 68.861-112.201 92.262-22.763 12.421-46.857 22.336-71.612 29.774-13.372 4.029-27.029 7.34-40.781 10.017-3.511 0.69-7.019 1.579-10.624 1.579-4.553 0-9.105 0-13.658 0-8.725 0-17.455 0-26.18 0-3.981 0-7.966 0.186-11.951-0.296-3.601-0.44-7.3-0.954-10.906-1.551-7.019-1.135-13.884-2.524-20.753-4.168-13.602-3.27-26.983-7.544-40.015-12.666-26.054-10.244-50.743-23.869-73.781-39.759-45.005-31.034-84.091-70.533-116.994-114.131-34.874-46.237-62.75-97.636-84.271-151.375-22.887-57.152-38.697-117.043-48.467-177.822-1.262-7.799-3.073-15.898-3.073-23.795 0-4.254 0-8.495 0-12.719 0-2.035-0.047-3.132 1.071-4.817 0.835-1.259 1.65-2.5 2.513-3.759z" />
<glyph unicode="&#xe99f;" glyph-name="basket-fill" d="M128 768h128v-128h-128v128zM256 554.666h128v-128h-128v128zM341.333 767.999h128v-128h-128v128zM725.333 384l-213.333 213.333h128v170.666h170.667v-170.666h128l-213.333-213.333zM320-85.334c-33.309 0-62.161 19.085-76.217 46.916l-0.251-0.068-111.215 318.43-4.317 18.722c0 23.565 19.102 42.667 42.667 42.667h682.666c23.561 0 42.667-19.102 42.667-42.667l-1.788-12.262-113.997-324.821c-14.054-27.831-42.906-46.916-76.215-46.916h-384zM324.573 0h374.768l93.175 256h-561.12l93.176-256z" />
<glyph unicode="&#xe9a0;" glyph-name="basket-unfill" d="M128 426.666h128v128h-128v-128zM213.333 640h128v128h-128v-128zM341.334 426.666h128v128h-128v-128zM725.333 810.666l-213.333-213.333h128v-170.666h170.667v170.666h128l-213.333 213.333zM320-85.334c-33.309 0-62.161 19.085-76.217 46.916l-0.251-0.068-111.215 318.43-4.317 18.722c0 23.565 19.102 42.667 42.667 42.667h682.666c23.561 0 42.667-19.102 42.667-42.667l-1.788-12.262-113.997-324.821c-14.054-27.831-42.906-46.916-76.215-46.916h-384zM324.573 0h374.768l93.175 256h-561.12l93.176-256z" />
<glyph unicode="&#xe9a1;" glyph-name="basket" d="M234.667-42.667c-33.309 0-62.161 19.085-76.217 46.916l-0.251-0.068-111.215 403.763-4.317 18.722c0 23.564 19.102 42.666 42.667 42.666h195.327l196.387 280.473c7.718 11.001 20.493 18.194 34.953 18.194 14.677 0 27.627-7.413 35.302-18.7l196.036-279.967h195.328c23.565 0 42.667-19.102 42.667-42.666l-1.788-12.262-113.997-410.155c-14.054-27.831-42.906-46.916-76.215-46.916h-554.667zM512 650.945l-127.167-181.613h254.335l-127.168 181.613zM512 298.666c-47.13 0-85.333-38.204-85.333-85.333s38.204-85.333 85.333-85.333c47.13 0 85.333 38.204 85.333 85.333s-38.204 85.333-85.333 85.333z" />
<glyph unicode="&#xe9a2;" glyph-name="battery-10" d="M682.637 85.41l-341.304-0.077-0.025 512.083h341.333zM711.1 682.75h-71.125v85.333h-256v-85.333h-71.126c-31.416 0-56.874-25.471-56.874-56.875v-654.249c0-31.407 25.458-56.875 56.874-56.875h398.251c31.415 0 56.875 25.468 56.875 56.875v654.249c0 31.404-25.459 56.875-56.875 56.875z" />
<glyph unicode="&#xe9a3;" glyph-name="battery-20" d="M682.641 128.085h-341.333v469.331h341.333zM711.1 682.75h-71.125v85.333h-256v-85.333h-71.126c-31.416 0-56.874-25.471-56.874-56.875v-654.249c0-31.407 25.458-56.875 56.874-56.875h398.251c31.415 0 56.875 25.468 56.875 56.875v654.249c0 31.404-25.459 56.875-56.875 56.875z" />
<glyph unicode="&#xe9a4;" glyph-name="battery-30" d="M682.641 213.418h-341.333v383.998h341.333zM711.1 682.75h-71.125v85.333h-256v-85.333h-71.126c-31.416 0-56.874-25.471-56.874-56.875v-654.249c0-31.407 25.458-56.875 56.874-56.875h398.251c31.415 0 56.875 25.468 56.875 56.875v654.249c0 31.404-25.459 56.875-56.875 56.875z" />
<glyph unicode="&#xe9a5;" glyph-name="battery-40" d="M682.667 256h-341.334l-0.025 341.417h341.334zM711.1 682.75h-71.125v85.333h-256v-85.333h-71.126c-31.416 0-56.874-25.471-56.874-56.875v-654.249c0-31.407 25.458-56.875 56.874-56.875h398.252c31.415 0 56.875 25.468 56.875 56.875v654.249c0 31.404-25.459 56.875-56.875 56.875z" />
<glyph unicode="&#xe9a6;" glyph-name="battery-50" d="M682.667 298.666h-341.334l-0.025 298.75h341.334zM711.1 682.75h-71.125v85.333h-256v-85.333h-71.126c-31.416 0-56.874-25.471-56.874-56.875v-654.249c0-31.407 25.458-56.875 56.874-56.875h398.252c31.415 0 56.875 25.468 56.875 56.875v654.249c0 31.404-25.459 56.875-56.875 56.875z" />
<glyph unicode="&#xe9a7;" glyph-name="battery-60" d="M682.637 341.41h-341.331l0.003 256.006h341.333zM711.1 682.75h-71.125v85.333h-256v-85.333h-71.126c-31.416 0-56.874-25.471-56.874-56.875v-654.249c0-31.407 25.458-56.875 56.874-56.875h398.251c31.415 0 56.875 25.468 56.875 56.875v654.249c0 31.404-25.459 56.875-56.875 56.875z" />
<glyph unicode="&#xe9a8;" glyph-name="battery-70" d="M682.637 426.744h-341.335l0.005 170.672h341.334zM711.1 682.75h-71.125v85.333h-256v-85.333h-71.126c-31.416 0-56.874-25.471-56.874-56.875v-654.249c0-31.407 25.458-56.875 56.874-56.875h398.252c31.403 0 56.875 25.468 56.875 56.875v654.249c0 31.404-25.472 56.875-56.875 56.875z" />
<glyph unicode="&#xe9a9;" glyph-name="battery-80" d="M682.641 469.416h-341.334v128h341.334zM711.1 682.75h-71.125v85.333h-256v-85.333h-71.126c-31.416 0-56.874-25.471-56.874-56.875v-654.249c0-31.407 25.458-56.875 56.874-56.875h398.252c31.403 0 56.875 25.468 56.875 56.875v654.249c0 31.404-25.472 56.875-56.875 56.875z" />
<glyph unicode="&#xe9aa;" glyph-name="battery-90" d="M682.641 512.083h-341.334v85.333h341.334zM711.1 682.75h-71.125v85.333h-256v-85.333h-71.125c-31.404 0-56.875-25.471-56.875-56.875v-654.249c0-31.407 25.471-56.875 56.875-56.875h398.251c31.403 0 56.875 25.468 56.875 56.875v654.249c0 31.404-25.472 56.875-56.875 56.875z" />
<glyph unicode="&#xe9ab;" glyph-name="battery-alert" d="M554.641 256.085h-85.333v213.331h85.333zM554.641 85.418h-85.333v85.333h85.333zM711.1 682.75h-71.125v85.333h-256v-85.333h-71.125c-31.404 0-56.875-25.471-56.875-56.875v-654.249c0-31.407 25.471-56.875 56.875-56.875h398.251c31.403 0 56.875 25.468 56.875 56.875v654.249c0 31.404-25.472 56.875-56.875 56.875z" />
<glyph unicode="&#xe9ac;" glyph-name="battery-charging-20" d="M983.479 384.085h-128v298.665l-213.333-426.665h128v-341.333zM514.146 128.085h-341.334v469.331h341.334zM542.605 682.75h-71.125v85.333h-256v-85.333h-71.125c-31.404 0-56.875-25.471-56.875-56.875v-654.249c0-31.407 25.472-56.875 56.875-56.875h398.251c31.403 0 56.875 25.468 56.875 56.875v654.249c0 31.404-25.472 56.875-56.875 56.875z" />
<glyph unicode="&#xe9ad;" glyph-name="battery-charging-30" d="M511.974 213.418h-341.334v383.998h341.334zM540.433 682.75h-71.125v85.333h-256v-85.333h-71.125c-31.404 0-56.875-25.471-56.875-56.875v-654.249c0-31.407 25.471-56.875 56.875-56.875h398.251c31.403 0 56.875 25.468 56.875 56.875v654.249c0 31.404-25.472 56.875-56.875 56.875zM981.308 384.085h-128v298.665l-213.333-426.665h128v-341.333l213.333 469.333z" />
<glyph unicode="&#xe9ae;" glyph-name="battery-charging-40" d="M981.308 384.085h-128v298.665l-213.333-426.665h128v-341.333zM511.974 298.752h-341.334v298.665h341.334zM540.433 682.75h-71.125v85.333h-256v-85.333h-71.125c-31.404 0-56.875-25.471-56.875-56.875v-654.249c0-31.407 25.471-56.875 56.875-56.875h398.251c31.403 0 56.875 25.468 56.875 56.875v654.249c0 31.404-25.472 56.875-56.875 56.875z" />
<glyph unicode="&#xe9af;" glyph-name="battery-charging-60" d="M511.974 384.085h-341.332v213.331h341.332zM540.433 682.75h-71.125v85.333h-255.999v-85.333h-71.125c-31.404 0-56.875-25.471-56.875-56.875v-654.249c0-31.407 25.472-56.875 56.875-56.875h398.249c31.403 0 56.875 25.468 56.875 56.875v654.249c0 31.404-25.472 56.875-56.875 56.875zM981.308 384.085h-128v298.665l-213.333-426.665h128v-341.333l213.333 469.333z" />
<glyph unicode="&#xe9b0;" glyph-name="battery-charging-80" d="M981.308 384.085h-128v298.665l-213.333-426.665h128v-341.333zM511.974 469.416h-341.334v128h341.334zM540.433 682.75h-71.125v85.333h-256v-85.333h-71.125c-31.404 0-56.875-25.471-56.875-56.875v-654.249c0-31.407 25.471-56.875 56.875-56.875h398.251c31.403 0 56.875 25.468 56.875 56.875v654.249c0 31.404-25.472 56.875-56.875 56.875z" />
<glyph unicode="&#xe9b1;" glyph-name="battery-charging-90" d="M981.308 384.085h-128v298.665l-213.333-426.665h128v-341.333zM511.974 512.083h-341.334v85.333h341.334zM540.433 682.75h-71.125v85.333h-256v-85.333h-71.125c-31.404 0-56.875-25.471-56.875-56.875v-654.249c0-31.407 25.471-56.875 56.875-56.875h398.251c31.403 0 56.875 25.468 56.875 56.875v654.249c0 31.404-25.472 56.875-56.875 56.875z" />
<glyph unicode="&#xe9b2;" glyph-name="battery-charging-100" d="M981.308 384.085h-128v298.665l-213.333-426.665h128v-341.333zM540.433 682.75h-71.125v85.333h-256v-85.333h-71.125c-31.404 0-56.875-25.471-56.875-56.875v-654.249c0-31.407 25.471-56.875 56.875-56.875h398.251c31.403 0 56.875 25.468 56.875 56.875v654.249c0 31.404-25.472 56.875-56.875 56.875z" />
<glyph unicode="&#xe9b3;" glyph-name="battery-charging" d="M711.202 682.72h-71.258v85.173h-255.945v-85.173h-71.253c-31.253 0-56.64-25.653-56.64-56.907v-653.922c0-31.676 25.387-57.331 56.64-57.331h398.029c31.676 0 57.331 25.655 57.331 56.909v654.345c0 31.253-25.655 56.907-56.905 56.907zM469.389 0v234.56h-85.442l170.613 320v-234.56h85.44z" />
<glyph unicode="&#xe9b4;" glyph-name="battery-minus" d="M711.1 682.75c31.415 0 56.875-25.472 56.875-56.875v-654.249c0-31.403-25.459-56.875-56.875-56.875h-398.251c-31.416 0-56.874 25.472-56.874 56.875v654.249c0 31.403 25.458 56.875 56.874 56.875h71.126l0.026 85.25 255.974 0.083v-85.333h71.125zM341.333 341.329v-85.333h341.333v85.333z" />
<glyph unicode="&#xe9b5;" glyph-name="battery-negative" d="M497.792 682.666c31.415 0 56.875-25.472 56.875-56.875v-654.25c0-31.403-25.459-56.875-56.875-56.875h-398.251c-31.416 0-56.874 25.472-56.874 56.875v654.25c0 31.403 25.458 56.875 56.874 56.875h71.126l0.026 85.25 255.974 0.084v-85.333h71.125zM640.026 341.248h341.333v-85.333h-341.333v85.333zM128 298.666h341.333v298.667h-341.333v-298.667z" />
<glyph unicode="&#xe9b6;" glyph-name="battery-outline" d="M682.667 0h-341.334l-0.025 597.417h341.333zM711.1 682.75h-71.125v85.333h-256v-85.333h-71.126c-31.416 0-56.874-25.471-56.874-56.875v-654.249c0-31.407 25.458-56.875 56.874-56.875h398.251c31.415 0 56.875 25.468 56.875 56.875v654.249c0 31.404-25.459 56.875-56.875 56.875z" />
<glyph unicode="&#xe9b7;" glyph-name="battery-plus" d="M711.1 682.75c31.415 0 56.875-25.472 56.875-56.875v-654.249c0-31.403-25.459-56.875-56.875-56.875h-398.251c-31.416 0-56.874 25.472-56.874 56.875v654.249c0 31.403 25.458 56.875 56.874 56.875h71.126l0.026 85.25 255.974 0.083v-85.333h71.125zM682.667 255.995v85.333l-128 0.004v127.997h-85.333v-127.997l-128-0.004v-85.333l128 0.004v-128.004h85.333v128.004l128-0.004z" />
<glyph unicode="&#xe9b8;" glyph-name="battery-positive" d="M497.792 682.666c31.415 0 56.875-25.472 56.875-56.875v-654.25c0-31.403-25.459-56.875-56.875-56.875h-398.251c-31.416 0-56.874 25.472-56.874 56.875v654.25c0 31.403 25.458 56.875 56.874 56.875h71.126l0.026 85.25 255.974 0.084v-85.333h71.125zM981.359 255.914l-128 0.004v-128.004h-85.333v128.004l-128-0.004v85.333l128 0.004v127.997h85.333v-127.997l128-0.004v-85.333zM128 298.666h341.333v298.667h-341.333v-298.667z" />
<glyph unicode="&#xe9b9;" glyph-name="battery-standard" d="M682.641 341.418h-341.333v255.998h341.333zM711.1 682.75h-71.125v85.333h-256v-85.333h-71.125c-31.417 0-56.875-25.471-56.875-56.875v-654.249c0-31.407 25.458-56.875 56.875-56.875h398.25c31.415 0 56.875 25.468 56.875 56.875v654.249c0 31.404-25.459 56.875-56.875 56.875z" />
<glyph unicode="&#xe9ba;" glyph-name="battery-unknown" d="M642.816 330.581l-38.187-39.168c-22.912-22.908-39.253-43.051-46.251-77.995h-86.912c4.864 38.49 21.717 73.263 47.829 99.328l53.035 53.675c15.403 15.445 24.96 36.779 24.96 60.332 0 47.104-38.187 85.333-85.333 85.333-47.104 0-85.335-38.229-85.335-85.333h-85.332c0 94.252 76.416 170.667 170.667 170.667 94.293 0 170.667-76.415 170.667-170.667 0-37.548-15.189-71.554-39.808-96.172zM554.624 42.752h-85.333v85.333h85.333zM711.083 682.753h-71.125v85.333h-256.002v-85.333h-71.082c-31.445 0-56.917-25.471-56.917-56.916v-654.206c0-31.403 25.472-56.879 56.917-56.879h398.209c31.403 0 56.875 25.476 56.875 56.879v654.206c0 31.445-25.472 56.916-56.875 56.916z" />
<glyph unicode="&#xe9bb;" glyph-name="battery" d="M711.1 682.75h-71.125v85.333h-256v-85.333h-71.126c-31.416 0-56.874-25.471-56.874-56.875v-654.249c0-31.407 25.458-56.875 56.874-56.875h398.251c31.415 0 56.875 25.468 56.875 56.875v654.249c0 31.404-25.459 56.875-56.875 56.875z" />
<glyph unicode="&#xe9bc;" glyph-name="beach" d="M639.979 62.208c91.085 14.080 192.209 23.125 298.688 23.125v-170.667h-725.333c0 27.644 136.34 91.119 341.312 132.382v277.431c-36.011-10.722-66.325-34.658-85.325-66.185-26.129 43.366-73.677 72.371-127.999 72.371-54.313 0-101.855-28.996-127.988-72.354 1.489 152.687 150.282 278.102 341.312 294.531v1.824c0 23.564 19.102 42.667 42.667 42.667 23.561 0 42.667-19.103 42.667-42.667v-1.821c191.036-16.421 339.844-141.841 341.333-294.533-26.133 43.358-73.677 72.354-127.991 72.354-54.319 0-101.867-29.005-128-72.371-18.999 31.535-49.323 55.475-85.342 66.189v-262.276zM298.667 768c0-117.821-95.513-213.333-213.333-213.333v213.333h213.333z" />
<glyph unicode="&#xe9bd;" glyph-name="beaker" d="M128 725.333h768v-85.333c-47.13 0-85.333-38.204-85.333-85.333v-512c0-47.13-38.204-85.333-85.333-85.333h-426.667c-47.128 0-85.333 38.204-85.333 85.333v512c0 47.13-38.205 85.333-85.333 85.333v85.333zM298.667 639.999v-85.333h213.333v-42.666h-213.333v-42.667h128v-42.667h-128v-42.667h128v-42.667h-128v-42.667h213.333v-42.667h-213.333v-42.667h128v-42.667h-128v-128h426.667v597.333h-426.667z" />
<glyph unicode="&#xe9be;" glyph-name="beats" d="M298.667 341.333c0-117.82 95.512-213.333 213.333-213.333 117.82 0 213.333 95.514 213.333 213.333s-95.514 213.333-213.333 213.333c-48.026 0-92.345-15.87-128-42.651v236.451c40.407 12.691 83.405 19.533 128 19.533 235.639 0 426.667-191.025 426.667-426.667 0-235.639-191.027-426.667-426.667-426.667-235.642 0-426.667 191.027-426.667 426.667 0 157.927 85.802 295.814 213.333 369.586v-369.586zM512 469.333c70.694 0 128-57.306 128-128s-57.306-128-128-128c-70.694 0-128 57.306-128 128s57.306 128 128 128z" />
<glyph unicode="&#xe9bf;" glyph-name="beer" d="M170.667 768h640l-85.333-853.333h-469.333l-85.333 853.333zM264.533 682.666l68.267-682.667h42.667l-58.286 582.858c44.452 13.972 104.856 19.105 152.152-28.192 66.445-66.445 184.627-29.415 233.69-9.767l13.777 137.767h-452.267z" />
<glyph unicode="&#xe9c0;" glyph-name="behance" d="M835.49 329.668c-1.873 26.428-10.705 46.447-26.577 60.109-15.778 13.722-35.469 20.608-58.953 20.608-25.574 0-45.299-7.369-59.341-21.82-14.11-14.43-22.908-34.061-26.5-58.897zM935.39 339.571c2.59-17.374 3.738-42.577 3.277-75.52h-276.937c1.536-38.242 14.724-64.964 39.761-80.26 15.078-9.596 33.374-14.281 54.822-14.281 22.575 0 41.007 5.717 55.194 17.459 7.723 6.217 14.537 15.010 20.425 26.082h101.513c-2.667-22.566-14.891-45.478-36.838-68.745-34.039-36.975-81.766-55.531-143.053-55.531-50.633 0-95.266 15.646-133.995 46.814-38.618 31.275-58.005 82.005-58.005 152.375 0 65.988 17.408 116.484 52.339 151.644 35.059 35.228 80.303 52.751 136.068 52.751 33.058 0 62.861-5.897 89.438-17.789 26.517-11.892 48.41-30.609 65.673-56.328 15.595-22.643 25.651-48.832 30.319-78.673zM408.664 253.192c0 27.597-11.279 46.656-33.781 56.887-12.575 5.811-30.336 8.781-53.098 8.998h-113.975v-141.508h112.216c23.040 0 40.893 3.004 53.765 9.31 23.224 11.58 34.874 33.609 34.874 66.313zM207.81 406.988h112.364c23.077 0 41.764 4.403 56.136 13.163 14.353 8.762 21.521 24.332 21.521 46.693 0 24.701-9.483 41.097-28.523 48.986-16.353 5.481-37.281 8.307-62.673 8.307h-98.826zM499.861 323.383c13.798-21.355 20.685-47.317 20.685-77.769 0-31.509-7.778-59.767-23.595-84.732-10.057-16.529-22.558-30.49-37.559-41.715-16.909-12.992-36.93-21.897-59.932-26.667-23.077-4.766-48.060-7.168-74.971-7.168h-239.156v531.021h256.454c64.655-1.063 110.475-19.78 137.534-56.563 16.243-22.559 24.282-49.632 24.282-81.085 0-32.468-8.149-58.44-24.542-78.182-9.114-11.059-22.596-21.129-40.431-30.212 27.021-9.899 47.522-25.472 61.231-46.929zM856.064 541.196h-213.854v53.121h213.854v-53.121z" />
<glyph unicode="&#xe9c1;" glyph-name="bell-off" d="M597.333 0c0-47.13-38.204-85.333-85.333-85.333s-85.333 38.204-85.333 85.333h170.667zM842.15-66.829l-109.495 109.495h-604.655l128 128v256c0 27.911 4.467 54.779 12.725 79.929l-120.483 120.482 60.34 60.34 693.908-693.907-60.339-60.339zM469.333 679.126v46.206c0 23.564 19.102 42.666 42.667 42.666s42.667-19.102 42.667-42.666v-46.206c121.075-20.312 213.333-125.612 213.333-252.46v-177.988l-393.783 393.784c28.378 18.156 60.573 30.868 95.116 36.664z" />
<glyph unicode="&#xe9c2;" glyph-name="bell-outline" d="M682.641 128.081h-384v277.333c0 106.025 85.974 191.998 192 191.998s192-85.973 192-191.998zM767.974 170.747v234.667c0 131.113-91.093 240.681-213.333 269.609v29.056c0 35.328-28.672 64-64 64s-64-28.672-64-64v-29.056c-122.24-28.928-213.333-138.496-213.333-269.609v-234.667l-85.333-85.333v-42.667h725.334v42.667zM490.641-85.253c47.147 0 85.333 38.246 85.333 85.333h-170.667c0-47.087 38.23-85.333 85.334-85.333z" />
<glyph unicode="&#xe9c3;" glyph-name="bell-plus" d="M427.093-43.149c0-46.822 37.922-84.745 85.013-84.745 46.827 0 84.749 37.922 84.749 84.745zM805.602 135.628v248.32c0 138.771-96 254.825-225.818 285.438v30.827c0 37.493-30.182 67.68-67.678 67.68-37.705 0-67.947-30.187-67.947-67.68v-30.827c-129.76-30.613-225.6-146.667-225.6-285.438v-248.32l-90.667-90.402v-45.227h768.162v45.227zM682.718 298.346h-128.158v-128.162h-85.171v128.162h-128.162v85.602h128.162v128.158h85.171v-128.158h128.158z" />
<glyph unicode="&#xe9c4;" glyph-name="bell-ring-outline" d="M682.654 128.081v277.333c0 106.028-85.973 192.001-192 192.001s-192.001-85.973-192.001-192.001v-277.333h384.001zM767.987 170.747l85.333-85.333v-42.667h-725.335v42.667l85.333 85.333v234.667c0 131.116 91.094 240.684 213.333 269.612v29.056c0 35.328 28.673 64 64.001 64s64-28.672 64-64v-29.056c122.24-28.928 213.333-138.496 213.333-269.612v-234.667zM490.654-85.253c-47.104 0-85.335 38.251-85.335 85.333h170.668c0-47.083-38.187-85.333-85.333-85.333zM852.241 426.749c-6.613 113.067-64.768 212.125-151.595 274.005l60.885 60.885c102.144-77.781 169.557-198.187 176.043-334.891h-85.333zM280.633 700.754c-86.826-61.88-144.981-160.938-151.595-274.005h-85.333c6.485 136.704 73.899 257.109 176.043 334.89l60.885-60.885z" />
<glyph unicode="&#xe9c5;" glyph-name="bell-ring" d="M490.641-85.253c5.888 0 11.648 0.585 17.195 1.707 27.776 5.713 50.645 24.875 61.44 50.419 4.309 10.21 6.699 21.431 6.699 33.207h-170.667c0-47.083 38.23-85.333 85.334-85.333zM767.974 405.414c0 131.116-91.093 240.684-213.333 269.612v29.056c0 35.328-28.672 64-64 64s-64-28.672-64-64v-29.056c-122.24-28.928-213.333-138.496-213.333-269.612v-234.667l-85.333-85.333v-42.667h725.334v42.667l-85.333 85.333zM852.241 426.749h85.333c-6.485 136.704-73.899 257.109-176.043 334.891l-60.885-60.885c86.827-61.88 144.981-160.939 151.595-274.005zM280.635 700.754l-60.885 60.885c-102.144-77.781-169.557-198.187-176.043-334.891h85.333c6.613 113.067 64.768 212.125 151.595 274.005z" />
</font>
</defs>
</svg>
